Начать новую тему Ответить на тему
Статистика раздачи
Размер: 335.22 МБ | Добавлен: 19 мар 2020, 22:35 | Скачали: 1
Сидеров: 10  [0 байт/сек]    Личеров: 2  [0 байт/сек]
Пред. тема | След. тема 

Автор
Сообщение

СообщениеДобавлено: 19 мар 2020, 22:35 

Ответить с цитатой 

Funkadelic / Who's A Funkadelic?
Жанр: P.Funk, Disco
Носитель: CD
Страна-производитель диска (релиза): US
Год издания: 1992
Издатель (лейбл): Avenue Records
Номер по каталогу: R2 71087
Аудиокодек: FLAC (*.flac)
Тип рипа: tracks+.cue
Продолжительность: 00:40:10
Источник: локальная сеть
Наличие сканов в содержимом раздачи: да
Треклист:
1 Phunklords 5:32
2 You'll Like It Too 4:27
The Witch (9:29)
3.a Shade I: The Proclafunktion
3.b Shade II: The Infunktation
3.c Shade III: The Celefunktion
4 Connections And Disconnections 5:00
5 Come Back 4:44
6 Call The Doctor 5:12
7 Who's A Funkadelic 5:47
Код:
Exact Audio Copy V1.0 beta 1 from 15. November 2010
EAC extraction logfile from 26. March 2011, 6:27
Funkadelic / Who's A Funkadelic?
Used drive  : ATAPI   iHAS424   B   Adapter: 1  ID: 0
Read mode               : Secure
Utilize accurate stream : Yes
Defeat audio cache      : No
Make use of C2 pointers : No
Combined read/write offset correction       : 0
Overread into Lead-In and Lead-Out          : No
Fill up missing offset samples with silence : Yes
Delete leading and trailing silent blocks   : No
Null samples used in CRC calculations       : No
Used interface                              : Native Win32 interface for Win NT & 2000
Gap handling                                : Not detected, thus appended to previous track
Used output format              : User Defined Encoder
Selected bitrate                : 768 kBit/s
Quality                         : High
Add ID3 tag                     : No
Command line compressor         : C:\Program Files (x86)\Exact Audio Copy\FLAC\FLAC.EXE
Additional command line options : -6 -V -T "ARTIST=%a" -T "TITLE=%t" -T "ALBUM=%g" -T "DATE=%y" -T "TRACKNUMBER=%n" -T "GENRE=%m" -T "COMMENT=%e" %j--picture="%i"%j %s -o %d
TOC of the extracted CD
     Track |   Start  |  Length  | Start sector | End sector
    ---------------------------------------------------------
        1  |  0:00.32 |  5:35.63 |        32    |    25219
        2  |  5:36.20 |  4:29.25 |     25220    |    45419
        3  | 10:05.45 |  9:31.27 |     45420    |    88271
        4  | 19:36.72 |  5:02.28 |     88272    |   110949
        5  | 24:39.25 |  4:32.02 |    110950    |   131351
        6  | 29:11.27 |  5:14.08 |    131352    |   154909
        7  | 34:25.35 |  5:47.30 |    154910    |   180964
Track  1
     Filename C:\Users\Dana\Music\WAV files output\EAC Output\01. Phunklords .wav
     Peak level 100.0 %
     Extraction speed 8.2 X
     Track quality 100.0 %
     Copy CRC 97A2B560
     Copy OK
Track  2
     Filename C:\Users\Dana\Music\WAV files output\EAC Output\02. You'll Like It To .wav
     Peak level 100.0 %
     Extraction speed 9.2 X
     Track quality 99.9 %
     Copy CRC 090538E2
     Copy OK
Track  3
     Filename C:\Users\Dana\Music\WAV files output\EAC Output\03. The Witch , Shade I- The Proclafunktion , Shade II- The Infunktation , Shade III- The Celefunktion .wav
     Peak level 100.0 %
     Extraction speed 11.3 X
     Track quality 100.0 %
     Copy CRC 134A381E
     Copy OK
Track  4
     Filename C:\Users\Dana\Music\WAV files output\EAC Output\04. Connections and Disconnections .wav
     Peak level 100.0 %
     Extraction speed 12.3 X
     Track quality 100.0 %
     Copy CRC 125AD2F2
     Copy OK
Track  5
     Filename C:\Users\Dana\Music\WAV files output\EAC Output\05. Come Back .wav
     Peak level 100.0 %
     Extraction speed 12.8 X
     Track quality 100.0 %
     Copy CRC F4E52C57
     Copy OK
Track  6
     Filename C:\Users\Dana\Music\WAV files output\EAC Output\06. Call The Doctor .wav
     Peak level 100.0 %
     Extraction speed 13.9 X
     Track quality 100.0 %
     Copy CRC 530CCD35
     Copy OK
Track  7
     Filename C:\Users\Dana\Music\WAV files output\EAC Output\07. Who's A Funkadelic .wav
     Peak level 100.0 %
     Extraction speed 14.2 X
     Track quality 100.0 %
     Copy CRC D1786FBB
     Copy OK
No errors occurred
End of status report
Код:
REM GENRE Other
REM DATE ----
REM DISCID 5B096C07
REM COMMENT "CUE Corrector v. 8.3.5 / b. 929 (Sep. 27, 2019)"
PERFORMER Funkadelic
TITLE "Who's A Funkadelic?"
FILE "01. Phunklords .wav" WAVE
  TRACK 01 AUDIO
    TITLE Phunklords
    PERFORMER Funkadelic
    PREGAP 00:-02:00
    INDEX 01 00:00:00
FILE "02. You'll Like It To .wav" WAVE
  TRACK 02 AUDIO
    TITLE "You'll Like It To"
    PERFORMER Funkadelic
    INDEX 01 00:00:00
FILE "03. The Witch , Shade I- The Proclafunktion , Shade II- The Infunktation , Shade III- The Celefunktion .wav" WAVE
  TRACK 03 AUDIO
    TITLE "The Witch , Shade I- The Proclafunktion , Shade II- The Infunktation , Shade III- The Celefunktion"
    PERFORMER Funkadelic
    INDEX 01 00:00:00
FILE "04. Connections and Disconnections .wav" WAVE
  TRACK 04 AUDIO
    TITLE "Connections and Disconnections"
    PERFORMER Funkadelic
    INDEX 01 00:00:00
FILE "05. Come Back .wav" WAVE
  TRACK 05 AUDIO
    TITLE "Come Back"
    PERFORMER Funkadelic
    INDEX 01 00:00:00
FILE "06. Call The Doctor .wav" WAVE
  TRACK 06 AUDIO
    TITLE "Call The Doctor"
    PERFORMER Funkadelic
    INDEX 01 00:00:00
FILE "07. Who's A Funkadelic .wav" WAVE
  TRACK 07 AUDIO
    TITLE "Who's A Funkadelic"
    PERFORMER Funkadelic
    INDEX 01 00:00:00
Правила, инструкции, FAQ!!!
Торрент  Добавлен [19 мар 2020, 22:35] Скачать торрент Магнет ссылка
Скачать торрент
[ Размер 14.45 КБ / Просмотров 4 ]

Статус
Проверен 
 
Размер  335.22 МБ
Приватный: Нет (DHT включён)
.torrent скачан  1
 


     Отправить личное сообщение
   
Страница 1 из 1
Показать сообщения за:  Поле сортировки  
Начать новую тему Ответить на тему


Сейчас этот форум просматривают: нет зарегистрированных пользователей и гости: 0


Вы не можете начинать темы
Вы не можете отвечать на сообщения
Вы не можете редактировать свои сообщения
Вы не можете удалять свои сообщения
Вы не можете добавлять вложения

Перейти:  
cron