Начать новую тему Ответить на тему
Статистика раздачи
Размер: 416.71 МБ | Добавлен: 08 май 2020, 12:57 | Скачали: 0
Сидеров: 34  [0 байт/сек]    Личеров: 11  [0 байт/сек]
Пред. тема | След. тема 

Автор
Сообщение

СообщениеДобавлено: 08 май 2020, 12:57 

Ответить с цитатой 

DeVicious / Phase Three
Жанр: Melodic Hard Rock
Носитель: WEB
Год издания: 2020-05-08
Издатель (лейбл): Metalapolis Records
Страна исполнителя (группы): Germany
Аудиокодек: FLAC (*.flac)
Тип рипа: tracks
Продолжительность: 00:53:01
Источник: Deezer
Наличие сканов в содержимом раздачи: только обложка альбома
Треклист:
01. Firefly (4:56)
02. Mysterious (4:16)
03. Pouring Rain (5:19)
04. Walk Through Fire (5:02)
05. Calling My Name (4:27)
06. Burning Skies (5:12)
07. Higher (5:09)
08. Unstoppable Interlude (1:06)
09. You Can't Stop Now (4:17)
10. Our Song (4:33)
11. Rising from a Thunder (4:22)
12. Bad Timing (4:21)
Код:
foobar2000 1.5.2 / Dynamic Range Meter 1.1.1
log date: 2020-05-07 15:07:03
--------------------------------------------------------------------------------
Analyzed: DeVicious / Phase Three
--------------------------------------------------------------------------------
DR         Peak         RMS     Duration Track
--------------------------------------------------------------------------------
DR6       -0.01 dB    -6.77 dB      4:56 01-Firefly
DR7       -0.01 dB    -7.22 dB      4:16 02-Mysterious
DR7       -0.01 dB    -7.73 dB      5:19 03-Pouring Rain
DR6       -0.01 dB    -6.96 dB      5:02 04-Walk Through Fire
DR6       -0.01 dB    -6.73 dB      4:27 05-Calling My Name
DR6       -0.01 dB    -7.22 dB      5:12 06-Burning Skies
DR7       -0.01 dB    -7.72 dB      5:09 07-Higher
DR11      -0.46 dB   -13.93 dB      1:06 08-Unstoppable Interlude
DR6       -0.01 dB    -7.33 dB      4:17 09-You Can't Stop Now
DR6       -0.01 dB    -7.29 dB      4:33 10-Our Song
DR6       -0.01 dB    -6.82 dB      4:22 11-Rising from a Thunder
DR10      -0.10 dB   -12.83 dB      4:21 12-Bad Timing
--------------------------------------------------------------------------------
Number of tracks:  12
Official DR value: DR7
Samplerate:        44100 Hz
Channels:          2
Bits per sample:   16
Bitrate:           775 kbps
Codec:             FLAC
================================================================================
Код:
-----------------------
DON'T MODIFY THIS FILE
-----------------------
PERFORMER: auCDtect Task Manager, ver. 1.6.0 RC1 build 1.6.0.1
Copyright (c) 2008-2010 y-soft. All rights reserved
[url=http://y-soft.org]http://y-soft.org[/url]
ANALYZER: auCDtect: CD records authenticity detector, version 0.8.2
Copyright (c) 2004 Oleg Berngardt. All rights reserved.
Copyright (c) 2004 Alexander Djourik. All rights reserved.
FILE: 12 - Bad Timing.flac
  Size: 26475824 Hash: 7EBF2342EB31DF465ED6565A35DE1FA3 Accuracy: -m0
  Conclusion: CDDA 99%
  Signature: F917B0D0BF43A21E5C673BB09DF937BE1582FE15
FILE: 11 - Rising from a Thunder.flac
  Size: 36823178 Hash: F3BAEA24235B970D2009B08B6AE55A0E Accuracy: -m0
  Conclusion: CDDA 100%
  Signature: DA6E337A17ADCB5C7252AB65AA4F982E3C4FCECB
FILE: 10 - Our Song.flac
  Size: 38766783 Hash: 69BDDB4330D9DAD0395FF89256DE04FB Accuracy: -m0
  Conclusion: CDDA 100%
  Signature: D263840768913AD3E6659480A6E14A37276AE017
FILE: 09 - You Can't Stop Now.flac
  Size: 36205879 Hash: 1D0FC1AB69E9ECB68AF24657B70DB135 Accuracy: -m0
  Conclusion: CDDA 100%
  Signature: D2094CCB0102A250B628D7892B9B3B9DFFFFB690
FILE: 08 - Unstoppable Interlude.flac
  Size: 7287225 Hash: 2C1D9955E3FDF17E23E7D18C81C51C11 Accuracy: -m0
  Conclusion: CDDA 100%
  Signature: 6D5CAA8C27103BE2C63D7E382005E8877508CF75
FILE: 07 - Higher.flac
  Size: 43105446 Hash: 036E345C241676FB6F5A0A1AF5DBA411 Accuracy: -m0
  Conclusion: CDDA 100%
  Signature: 9441CE30CAD64DE60626C013ACBA27A5462D0890
FILE: 06 - Burning Skies.flac
  Size: 43235328 Hash: C6AAAF54E05B377714C77F2E2091CC81 Accuracy: -m0
  Conclusion: CDDA 100%
  Signature: 987BFEDEFEE6CE469EBA5D9ACF54F32997B0E4FA
FILE: 05 - Calling My Name.flac
  Size: 37271794 Hash: C44362580FB1F53EAC365CC70E75CC28 Accuracy: -m0
  Conclusion: CDDA 100%
  Signature: 27CBF8CA8A29C366C0EE4C7EFAC91B05886D57E7
FILE: 04 - Walk Through Fire.flac
  Size: 42738400 Hash: 93278F927D5C170CC5ED9D3A2976AB02 Accuracy: -m0
  Conclusion: CDDA 100%
  Signature: 1CA7643639D6AE88C5C001CFF4EDD1A9837F793E
FILE: 03 - Pouring Rain.flac
  Size: 44604971 Hash: 9BD94EE5A42C0929304BFB713D0623DC Accuracy: -m0
  Conclusion: CDDA 100%
  Signature: 1F68A512E7F9F63B9E69D889EB03430B1E129151
FILE: 02 - Mysterious.flac
  Size: 36159827 Hash: 4A40680E32597AEE712C09239F624270 Accuracy: -m0
  Conclusion: CDDA 100%
  Signature: F4CE013E71338A244AE05325CCBCC0F930A76E28
FILE: 01 - Firefly.flac
  Size: 42103685 Hash: D9FFF9407D40EFBA99B967FA6798C96F Accuracy: -m0
  Conclusion: CDDA 100%
  Signature: 378D4686F7FC7BF5941CE211CC149423C95CC8CC
Правила, инструкции, FAQ!!!
Торрент  Добавлен [08 май 2020, 12:57] Скачать торрент Магнет ссылка
Скачать торрент
[ Размер 5.28 КБ / Просмотров 1 ]

Статус
Проверен 
 
Размер  416.71 МБ
Приватный: Нет (DHT включён)
.torrent скачан  0
 


     Отправить личное сообщение
   
Страница 1 из 1
Показать сообщения за:  Поле сортировки  
Начать новую тему Ответить на тему


Сейчас этот форум просматривают: нет зарегистрированных пользователей и гости: 0


Вы не можете начинать темы
Вы не можете отвечать на сообщения
Вы не можете редактировать свои сообщения
Вы не можете удалять свои сообщения
Вы не можете добавлять вложения

Перейти:  
cron