Начать новую тему Ответить на тему
Статистика раздачи
Размер: 2.66 ГБ | Добавлен: 29 мар 2020, 20:05 | Скачали: 0
Сидеров: 3  [0 байт/сек]    Личеров: 1  [0 байт/сек]
Пред. тема | След. тема 

Автор
Сообщение

СообщениеДобавлено: 29 мар 2020, 20:05 

Ответить с цитатой 

Lucky Peterson / Collection, 7 Albums - (1989, 1992, 1999, 2003, 2004, 2015, 2016)
Жанр: Modern Electric Blues, Soul Blues Носитель: CD Год издания: 1989, 1992, 1999, 2003, 2004, 2015, 2016 Страна исполнителя (группы): US Аудиокодек: FLAC (*.flac) Тип рипа: tracks+.cue Продолжительность: 06:18:49 Источник: Badeny и Компания Наличие сканов в содержимом раздачи: да, полные
Треклист:
Страна-производитель диска: US
Номер по каталогу: Alligator Records - ALCD 4770
Источник (релизер): свой рип
Трeклист:
01. Over My Head (3:57)
02. Pounding Of My Heart (3:09)
03. Can't Get No Loving On The Telephone (3:18)
04. She Spread Her Wings (And Flew Away) (4:39)
05. Lucky Strikes (4:01)
06. Dead Cat On The Line (3:11)
07. Bad Feeling (6:17)
08. Heart Attack (3:10)
09. Earlene (4:16)
Код:
Exact Audio Copy V1.1 from 23. June 2015
EAC extraction logfile from 2. February 2020, 10:00
Lucky Peterson / Lucky Strikes!
Used drive  : Optiarc DVD RW AD-7283S   Adapter: 1  ID: 0
Read mode               : Secure
Utilize accurate stream : Yes
Defeat audio cache      : Yes
Make use of C2 pointers : No
Read offset correction                      : 48
Overread into Lead-In and Lead-Out          : No
Fill up missing offset samples with silence : Yes
Delete leading and trailing silent blocks   : No
Null samples used in CRC calculations       : Yes
Used interface                              : Native Win32 interface for Win NT & 2000
Gap handling                                : Appended to previous track
Used output format              : User Defined Encoder
Selected bitrate                : 128 kBit/s
Quality                         : High
Add ID3 tag                     : No
Command line compressor         : C:\Program Files (x86)\Exact Audio Copy\Flac\flac.exe
Additional command line options : -V -8 -T "Genre=%genre%" -T "Artist=%artist%" -T "Title=%title%" -T "Album=%albumtitle%" -T "Date=%year%" -T "Tracknumber=%tracknr%" -T "Comment=%comment%" %source%
TOC of the extracted CD
     Track |   Start  |  Length  | Start sector | End sector
    ---------------------------------------------------------
        1  |  0:00.00 |  3:56.55 |         0    |    17754
        2  |  3:56.55 |  3:08.53 |     17755    |    31907
        3  |  7:05.33 |  3:18.12 |     31908    |    46769
        4  | 10:23.45 |  4:39.23 |     46770    |    67717
        5  | 15:02.68 |  4:01.15 |     67718    |    85807
        6  | 19:04.08 |  3:11.17 |     85808    |   100149
        7  | 22:15.25 |  6:17.25 |    100150    |   128449
        8  | 28:32.50 |  3:10.15 |    128450    |   142714
        9  | 31:42.65 |  4:16.23 |    142715    |   161937
Track  1
     Filename F:\alexbras\1989 Lucky Peterson - Lucky Strikes! (US ALCD 4770)\01 Over My Head.wav
     Pre-gap length  0:00:02.00
     Peak level 100.0 %
     Extraction speed 2.1 X
     Track quality 99.9 %
     Test CRC 437984A2
     Copy CRC 437984A2
     Accurately ripped (confidence 5)  [3AEB2065]  (AR v2)
     Copy OK
Track  2
     Filename F:\alexbras\1989 Lucky Peterson - Lucky Strikes! (US ALCD 4770)\02 Pounding Of My Heart.wav
     Peak level 100.0 %
     Extraction speed 2.5 X
     Track quality 100.0 %
     Test CRC BD19A5C9
     Copy CRC BD19A5C9
     Accurately ripped (confidence 5)  [F2EF6BAA]  (AR v2)
     Copy OK
Track  3
     Filename F:\alexbras\1989 Lucky Peterson - Lucky Strikes! (US ALCD 4770)\03 Can't Get No Loving On The Telephone.wav
     Peak level 100.0 %
     Extraction speed 2.7 X
     Track quality 100.0 %
     Test CRC 6DD039F4
     Copy CRC 6DD039F4
     Accurately ripped (confidence 5)  [08F7557D]  (AR v2)
     Copy OK
Track  4
     Filename F:\alexbras\1989 Lucky Peterson - Lucky Strikes! (US ALCD 4770)\04 She Spread Her Wings (And Flew Away).wav
     Pre-gap length  0:00:00.52
     Peak level 100.0 %
     Extraction speed 3.0 X
     Track quality 100.0 %
     Test CRC 2D8BD965
     Copy CRC 2D8BD965
     Accurately ripped (confidence 5)  [6BC8626B]  (AR v2)
     Copy OK
Track  5
     Filename F:\alexbras\1989 Lucky Peterson - Lucky Strikes! (US ALCD 4770)\05 Lucky Strikes.wav
     Pre-gap length  0:00:00.58
     Peak level 99.9 %
     Extraction speed 3.2 X
     Track quality 100.0 %
     Test CRC 81CAF8AB
     Copy CRC 81CAF8AB
     Accurately ripped (confidence 5)  [48A59B92]  (AR v2)
     Copy OK
Track  6
     Filename F:\alexbras\1989 Lucky Peterson - Lucky Strikes! (US ALCD 4770)\06 Dead Cat On The Line.wav
     Pre-gap length  0:00:00.18
     Peak level 100.0 %
     Extraction speed 2.8 X
     Track quality 99.9 %
     Test CRC A44310BF
     Copy CRC A44310BF
     Accurately ripped (confidence 5)  [2E041D2E]  (AR v2)
     Copy OK
Track  7
     Filename F:\alexbras\1989 Lucky Peterson - Lucky Strikes! (US ALCD 4770)\07 Bad Feeling.wav
     Peak level 100.0 %
     Extraction speed 3.8 X
     Track quality 100.0 %
     Test CRC 322E92F8
     Copy CRC 322E92F8
     Accurately ripped (confidence 5)  [5F739776]  (AR v2)
     Copy OK
Track  8
     Filename F:\alexbras\1989 Lucky Peterson - Lucky Strikes! (US ALCD 4770)\08 Heart Attack.wav
     Pre-gap length  0:00:00.10
     Peak level 99.9 %
     Extraction speed 3.2 X
     Track quality 99.9 %
     Test CRC E857B9CC
     Copy CRC E857B9CC
     Accurately ripped (confidence 5)  [62E6F31F]  (AR v2)
     Copy OK
Track  9
     Filename F:\alexbras\1989 Lucky Peterson - Lucky Strikes! (US ALCD 4770)\09 Earlene.wav
     Peak level 100.0 %
     Extraction speed 3.5 X
     Track quality 99.9 %
     Test CRC 4B574C98
     Copy CRC 4B574C98
     Accurately ripped (confidence 5)  [D3A2A9B5]  (AR v2)
     Copy OK
All tracks accurately ripped
No errors occurred
End of status report
==== Log checksum D405E3D98553120B6533E7F2EECCC1C6497687E22318D06EE1BB4B710C1D5D84 ====
Код:
REM GENRE Blues
REM DATE 1989
REM DISCID 6B086F09
REM COMMENT "ExactAudioCopy v1.1"
CATALOG 0000000000000
PERFORMER "Lucky Peterson"
TITLE "Lucky Strikes!"
FILE "01 Over My Head.wav" WAVE
  TRACK 01 AUDIO
    TITLE "Over My Head"
    PERFORMER "Lucky Peterson"
    INDEX 01 00:00:00
FILE "02 Pounding Of My Heart.wav" WAVE
  TRACK 02 AUDIO
    TITLE "Pounding Of My Heart"
    PERFORMER "Lucky Peterson"
    INDEX 01 00:00:00
FILE "03 Can't Get No Loving On The Telephone.wav" WAVE
  TRACK 03 AUDIO
    TITLE "Can't Get No Loving On The Telephone"
    PERFORMER "Lucky Peterson"
    INDEX 01 00:00:00
  TRACK 04 AUDIO
    TITLE "She Spread Her Wings (And Flew Away)"
    PERFORMER "Lucky Peterson"
    INDEX 00 03:17:35
FILE "04 She Spread Her Wings (And Flew Away).wav" WAVE
    INDEX 01 00:00:00
  TRACK 05 AUDIO
    TITLE "Lucky Strikes"
    PERFORMER "Lucky Peterson"
    INDEX 00 04:38:40
FILE "05 Lucky Strikes.wav" WAVE
    INDEX 01 00:00:00
  TRACK 06 AUDIO
    TITLE "Dead Cat On The Line"
    PERFORMER "Lucky Peterson"
    INDEX 00 04:00:72
FILE "06 Dead Cat On The Line.wav" WAVE
    INDEX 01 00:00:00
FILE "07 Bad Feeling.wav" WAVE
  TRACK 07 AUDIO
    TITLE "Bad Feeling"
    PERFORMER "Lucky Peterson"
    INDEX 01 00:00:00
  TRACK 08 AUDIO
    TITLE "Heart Attack"
    PERFORMER "Lucky Peterson"
    INDEX 00 06:17:15
FILE "08 Heart Attack.wav" WAVE
    INDEX 01 00:00:00
FILE "09 Earlene.wav" WAVE
  TRACK 09 AUDIO
    TITLE "Earlene"
    PERFORMER "Lucky Peterson"
    INDEX 01 00:00:00
Код:
-----------------------
DON'T MODIFY THIS FILE
-----------------------
PERFORMER: auCDtect Task Manager, ver. 1.6.0 RC1 build 1.6.0.1
Copyright (c) 2008-2010 y-soft. All rights reserved
[url=http://y-soft.org]http://y-soft.org[/url]
ANALYZER: auCDtect: CD records authenticity detector, version 0.8.2
Copyright (c) 2004 Oleg Berngardt. All rights reserved.
Copyright (c) 2004 Alexander Djourik. All rights reserved.
FILE: 09 Earlene.flac
  Size: 29112959 Hash: BA27FADAF259682A030405D4E2E8789E Accuracy: -m0
  Conclusion: MPEG 95%
  Signature: 92A0F41DB9D8DE2942CAE3360CB7954DE978BD62
FILE: 08 Heart Attack.flac
  Size: 22067599 Hash: F8F584A33AE10DD490B2EBC5BFD3E5E2 Accuracy: -m0
  Conclusion: MPEG 95%
  Signature: AF283FB2FD0DC724914EC966E23FCCD1AB4E302F
FILE: 07 Bad Feeling.flac
  Size: 40205908 Hash: E42A263EF886FB75E127271C9AD5340A Accuracy: -m0
  Conclusion: CDDA 100%
  Signature: A0ADC84049E9EC67E9521CDB07E9CDD628B071B2
FILE: 06 Dead Cat On The Line.flac
  Size: 21730788 Hash: AD6AD6FD12BB341ECC775557DAD391FA Accuracy: -m0
  Conclusion: MPEG 95%
  Signature: 75AD23BC8014369962DC05DFCC5556711DB53B48
FILE: 05 Lucky Strikes.flac
  Size: 29312968 Hash: 8A39DDDC4B6EDA48AF3658041F14E18E Accuracy: -m0
  Conclusion: CDDA 100%
  Signature: 98F4A9A1E2E91F4B1386B3D462A976539FE00B9F
FILE: 04 She Spread Her Wings (And Flew Away).flac
  Size: 29213446 Hash: 4372149E86476E5E362E45877E879EC5 Accuracy: -m0
  Conclusion: MPEG 95%
  Signature: 82AB380E11AF3E6A7CF74A6A25E2C8A1FB5D5A74
FILE: 03 Can't Get No Loving On The Telephone.flac
  Size: 22353254 Hash: DF3DE1CB3A29DBD2BA9C1D400DFF8B0C Accuracy: -m0
  Conclusion: CDDA 100%
  Signature: 26949BAAF9115189D438A8156EACBB7E3B4DC56F
FILE: 02 Pounding Of My Heart.flac
  Size: 21974146 Hash: 983821A230CD77D03083AEABF0D05CAC Accuracy: -m0
  Conclusion: MPEG 95%
  Signature: B773997AF33305E96C98E5933954B527B2413D71
FILE: 01 Over My Head.flac
  Size: 25956774 Hash: 472F000D9D71CCDF6F15341F14924F3A Accuracy: -m0
  Conclusion: CDDA 100%
  Signature: 7F0D4114820637C6AE4C23821066694E73C471CB
Код:
[url=https://i111.fastpic.ru/big/2020/0328/bb/bbe8ef208df3412ad923a547d8ec1abb.jpg][img]https://i111.fastpic.ru/big/2020/0328/37/e3079ed783c90463f2b58a2a51507837.png[/img][/url]  [url=https://i111.fastpic.ru/big/2020/0328/a8/b6756930c5c8349888d798cfe2b92ba8.jpg][img]https://i111.fastpic.ru/big/2020/0328/5a/eb57f5b9bae29cf247716c672381b05a.png[/img][/url]  [url=https://i111.fastpic.ru/big/2020/0328/7a/8b028a925fdeb16e1bf86165de57e97a.jpg][img]https://i111.fastpic.ru/big/2020/0328/56/6821556c6339008a95a4ed8e3c417956.png[/img][/url]  [url=https://i111.fastpic.ru/big/2020/0328/d5/451c90c01d626a9a651ae53833cea7d5.jpg][img]https://i111.fastpic.ru/big/2020/0328/29/3c183d02b0e07b4f60d9c65f0e831d29.png[/img][/url]  [url=https://i111.fastpic.ru/big/2020/0328/b0/7e111c1bc2b922bde31e0f965fca2db0.jpg][img]https://i111.fastpic.ru/big/2020/0328/a0/4bc3d8d9ad68306bf4124c78733ba0a0.png[/img][/url]
Прoдолжительность: 00:35:59
#777Страна-производитель диска: France
Номер по каталогу: Verve Records, Gitanes Jazz Productions - 314 517 513-2
Источник (релизер): pazanenok
Трeклист:
01. I'm Ready (4:36)
02. It Ain't Right (3:59)
03. You Shook Me (5:32)
04. Junk Yard (6:21)
05. Who's Been Talking (5:04)
06. I Lost Faith Last Night (5:25)
07. Tribute to the King (7:57)
08. On the Sea of Love (4:01)
09. Nothing but Smoke (8:15)
10. Spankin' Leroy (5:08)
11. Don't Cloud Up on Me (3:52)
12. Precious Lord Take My Hand (2:46)
Код:
Exact Audio Copy V1.1 from 23. June 2015
EAC extraction logfile from 18. May 2019, 8:57
Lucky Peterson / I'm Ready
Used drive  : PIONEER DVD-RW  DVR-219L   Adapter: 1  ID: 0
Read mode               : Secure
Utilize accurate stream : Yes
Defeat audio cache      : Yes
Make use of C2 pointers : No
Read offset correction                      : 6
Overread into Lead-In and Lead-Out          : No
Fill up missing offset samples with silence : Yes
Delete leading and trailing silent blocks   : No
Null samples used in CRC calculations       : Yes
Used interface                              : Native Win32 interface for Win NT & 2000
Gap handling                                : Appended to previous track
Used output format              : User Defined Encoder
Selected bitrate                : 128 kBit/s
Quality                         : High
Add ID3 tag                     : No
Command line compressor         : C:\Program Files\Exact Audio Copy\Flac\flac.exe
Additional command line options : -V -8 -T "Genre=%genre%" -T "Artist=%artist%" -T "Title=%title%" -T "Album=%albumtitle%" -T "Date=%year%" -T "Tracknumber=%tracknr%" -T "Comment=%comment%" %source%
TOC of the extracted CD
     Track |   Start  |  Length  | Start sector | End sector
    ---------------------------------------------------------
        1  |  0:00.33 |  4:35.65 |        33    |    20722
        2  |  4:36.23 |  3:59.00 |     20723    |    38647
        3  |  8:35.23 |  5:31.70 |     38648    |    63542
        4  | 14:07.18 |  6:20.62 |     63543    |    92104
        5  | 20:28.05 |  5:04.03 |     92105    |   114907
        6  | 25:32.08 |  5:25.02 |    114908    |   139284
        7  | 30:57.10 |  7:57.13 |    139285    |   175072
        8  | 38:54.23 |  4:01.32 |    175073    |   193179
        9  | 42:55.55 |  8:15.10 |    193180    |   230314
       10  | 51:10.65 |  5:07.55 |    230315    |   253394
       11  | 56:18.45 |  3:52.23 |    253395    |   270817
       12  | 60:10.68 |  2:45.50 |    270818    |   283242
Track  1
     Filename E:\alexbras\1992 Lucky Peterson - I'm Ready\01. I'm Ready.wav
     Pre-gap length  0:00:02.33
     Peak level 100.0 %
     Extraction speed 1.8 X
     Track quality 99.9 %
     Test CRC D587544D
     Copy CRC D587544D
     Accurately ripped (confidence 13)  [06743264]  (AR v2)
     Copy OK
Track  2
     Filename E:\alexbras\1992 Lucky Peterson - I'm Ready\02. It Ain't Right.wav
     Pre-gap length  0:00:02.30
     Peak level 82.1 %
     Extraction speed 2.1 X
     Track quality 100.0 %
     Test CRC 6D8BF426
     Copy CRC 6D8BF426
     Accurately ripped (confidence 13)  [83B6486E]  (AR v2)
     Copy OK
Track  3
     Filename E:\alexbras\1992 Lucky Peterson - I'm Ready\03. You Shook Me.wav
     Pre-gap length  0:00:04.18
     Peak level 93.3 %
     Extraction speed 2.5 X
     Track quality 100.0 %
     Test CRC 47ED9020
     Copy CRC 47ED9020
     Accurately ripped (confidence 13)  [504D1FA5]  (AR v2)
     Copy OK
Track  4
     Filename E:\alexbras\1992 Lucky Peterson - I'm Ready\04. Junk Yard.wav
     Pre-gap length  0:00:03.13
     Peak level 73.5 %
     Extraction speed 2.7 X
     Track quality 100.0 %
     Test CRC 4A72DB05
     Copy CRC 4A72DB05
     Accurately ripped (confidence 13)  [9FCA8A02]  (AR v2)
     Copy OK
Track  5
     Filename E:\alexbras\1992 Lucky Peterson - I'm Ready\05. Who's Been Talking.wav
     Pre-gap length  0:00:01.50
     Peak level 82.6 %
     Extraction speed 2.9 X
     Track quality 100.0 %
     Test CRC ADC33D97
     Copy CRC ADC33D97
     Accurately ripped (confidence 13)  [B3517315]  (AR v2)
     Copy OK
Track  6
     Filename E:\alexbras\1992 Lucky Peterson - I'm Ready\06. I Lost Faith Last Night.wav
     Pre-gap length  0:00:03.63
     Peak level 85.9 %
     Extraction speed 2.8 X
     Track quality 99.9 %
     Test CRC 27147622
     Copy CRC 27147622
     Accurately ripped (confidence 13)  [E033AB66]  (AR v2)
     Copy OK
Track  7
     Filename E:\alexbras\1992 Lucky Peterson - I'm Ready\07. Tribute to the King.wav
     Pre-gap length  0:00:01.67
     Peak level 97.4 %
     Extraction speed 3.4 X
     Track quality 100.0 %
     Test CRC 15782895
     Copy CRC 15782895
     Accurately ripped (confidence 13)  [6FCA87D4]  (AR v2)
     Copy OK
Track  8
     Filename E:\alexbras\1992 Lucky Peterson - I'm Ready\08. On the Sea of Love.wav
     Pre-gap length  0:00:02.55
     Peak level 98.1 %
     Extraction speed 3.3 X
     Track quality 100.0 %
     Test CRC AE69B606
     Copy CRC AE69B606
     Accurately ripped (confidence 13)  [1A8548D8]  (AR v2)
     Copy OK
Track  9
     Filename E:\alexbras\1992 Lucky Peterson - I'm Ready\09. Nothing but Smoke.wav
     Pre-gap length  0:00:04.15
     Peak level 91.4 %
     Extraction speed 3.8 X
     Track quality 100.0 %
     Test CRC 367674FA
     Copy CRC 367674FA
     Accurately ripped (confidence 13)  [A646A3DF]  (AR v2)
     Copy OK
Track 10
     Filename E:\alexbras\1992 Lucky Peterson - I'm Ready\10. Spankin' Leroy.wav
     Pre-gap length  0:00:01.52
     Peak level 82.5 %
     Extraction speed 3.4 X
     Track quality 99.9 %
     Test CRC 62AFD48A
     Copy CRC 62AFD48A
     Accurately ripped (confidence 13)  [15661CCE]  (AR v2)
     Copy OK
Track 11
     Filename E:\alexbras\1992 Lucky Peterson - I'm Ready\11. Don't Cloud Up on Me.wav
     Pre-gap length  0:00:02.25
     Peak level 91.1 %
     Extraction speed 3.8 X
     Track quality 100.0 %
     Test CRC 2F699D86
     Copy CRC 2F699D86
     Accurately ripped (confidence 13)  [15406D49]  (AR v2)
     Copy OK
Track 12
     Filename E:\alexbras\1992 Lucky Peterson - I'm Ready\12. Precious Lord Take My Hand.wav
     Pre-gap length  0:00:05.40
     Peak level 90.0 %
     Extraction speed 3.0 X
     Track quality 99.9 %
     Test CRC 0F7F88B5
     Copy CRC 0F7F88B5
     Accurately ripped (confidence 13)  [06E241BA]  (AR v2)
     Copy OK
All tracks accurately ripped
No errors occurred
End of status report
==== Log checksum BBE15C3EA0A84B6714B39D5E82B3AE9F3E60869AA56F02A24C8F6B8BDC11B5FE ====
Код:
REM GENRE Blues
REM DATE 1992
REM DISCID A80EC00C
REM COMMENT "ExactAudioCopy v1.1"
PERFORMER "Lucky Peterson"
TITLE "I'm Ready"
FILE "01. I'm Ready.wav" WAVE
  TRACK 01 AUDIO
    TITLE "I'm Ready"
    PERFORMER "Lucky Peterson"
    PREGAP 00:00:33
    INDEX 01 00:00:00
  TRACK 02 AUDIO
    TITLE "It Ain't Right"
    PERFORMER "Lucky Peterson"
    INDEX 00 04:33:35
FILE "02. It Ain't Right.wav" WAVE
    INDEX 01 00:00:00
  TRACK 03 AUDIO
    TITLE "You Shook Me"
    PERFORMER "Lucky Peterson"
    INDEX 00 03:54:57
FILE "03. You Shook Me.wav" WAVE
    INDEX 01 00:00:00
  TRACK 04 AUDIO
    TITLE "Junk Yard"
    PERFORMER "Lucky Peterson"
    INDEX 00 05:28:57
FILE "04. Junk Yard.wav" WAVE
    INDEX 01 00:00:00
  TRACK 05 AUDIO
    TITLE "Who's Been Talking"
    PERFORMER "Lucky Peterson"
    INDEX 00 06:19:12
FILE "05. Who's Been Talking.wav" WAVE
    INDEX 01 00:00:00
  TRACK 06 AUDIO
    TITLE "I Lost Faith Last Night"
    PERFORMER "Lucky Peterson"
    INDEX 00 05:00:15
FILE "06. I Lost Faith Last Night.wav" WAVE
    INDEX 01 00:00:00
  TRACK 07 AUDIO
    TITLE "Tribute to the King"
    PERFORMER "Lucky Peterson"
    INDEX 00 05:23:10
FILE "07. Tribute to the King.wav" WAVE
    INDEX 01 00:00:00
  TRACK 08 AUDIO
    TITLE "On the Sea of Love"
    PERFORMER "Lucky Peterson"
    INDEX 00 07:54:33
FILE "08. On the Sea of Love.wav" WAVE
    INDEX 01 00:00:00
  TRACK 09 AUDIO
    TITLE "Nothing but Smoke"
    PERFORMER "Lucky Peterson"
    INDEX 00 03:57:17
FILE "09. Nothing but Smoke.wav" WAVE
    INDEX 01 00:00:00
  TRACK 10 AUDIO
    TITLE "Spankin' Leroy"
    PERFORMER "Lucky Peterson"
    INDEX 00 08:13:33
FILE "10. Spankin' Leroy.wav" WAVE
    INDEX 01 00:00:00
  TRACK 11 AUDIO
    TITLE "Don't Cloud Up on Me"
    PERFORMER "Lucky Peterson"
    INDEX 00 05:05:30
FILE "11. Don't Cloud Up on Me.wav" WAVE
    INDEX 01 00:00:00
  TRACK 12 AUDIO
    TITLE "Precious Lord Take My Hand"
    PERFORMER "Lucky Peterson"
    INDEX 00 03:46:58
FILE "12. Precious Lord Take My Hand.wav" WAVE
    INDEX 01 00:00:00
Код:
-----------------------
DON'T MODIFY THIS FILE
-----------------------
PERFORMER: auCDtect Task Manager, ver. 1.6.0 RC1 build 1.6.0.1
Copyright (c) 2008-2010 y-soft. All rights reserved
[url=http://y-soft.org]http://y-soft.org[/url]
ANALYZER: auCDtect: CD records authenticity detector, version 0.8.2
Copyright (c) 2004 Oleg Berngardt. All rights reserved.
Copyright (c) 2004 Alexander Djourik. All rights reserved.
FILE: 12. Precious Lord Take My Hand.flac
  Size: 12253158 Hash: F9C9F891B3FC1D3BD6EF554CC3D9D757 Accuracy: -m0
  Conclusion: CDDA 100%
  Signature: C0FE0E84BB3A5C0A333193C6E79DB14D6351BEA4
FILE: 11. Don't Cloud Up on Me.flac
  Size: 25653448 Hash: 4BFEFF9C726E274476BD727F399E9CD6 Accuracy: -m0
  Conclusion: CDDA 100%
  Signature: 6302FBCD80EB266B077A2FF238A456FA227E71E0
FILE: 10. Spankin' Leroy.flac
  Size: 31956494 Hash: DA9811D136E0BB42CC0FA6906D0F34D3 Accuracy: -m0
  Conclusion: CDDA 100%
  Signature: BB35B8DDE9DB2C955F758B0722D78A0F3F08B308
FILE: 09. Nothing but Smoke.flac
  Size: 49994088 Hash: E5684B00ABC6EF0657BFB0C68679FAB3 Accuracy: -m0
  Conclusion: CDDA 99%
  Signature: 4C04C4DE4DF5923BC818AC97870FD3B6D7D36CF4
FILE: 08. On the Sea of Love.flac
  Size: 24976447 Hash: 4E9C64C8DFB59708F8141966161CBDF7 Accuracy: -m0
  Conclusion: CDDA 100%
  Signature: 4EF1A9F5BCA89F45DA40506449AAE5C8D5C912F8
FILE: 07. Tribute to the King.flac
  Size: 47570412 Hash: A424B587221C284544CF7A7759438216 Accuracy: -m0
  Conclusion: CDDA 99%
  Signature: 16697F862014BC8D76840D88FBEEF0336167D9FC
FILE: 06. I Lost Faith Last Night.flac
  Size: 35543608 Hash: E51996F6AD14D070D3908CC79AE3D9AB Accuracy: -m0
  Conclusion: CDDA 99%
  Signature: 343AE5D4FE5EC4FC0541FD78790F097CAD3B7526
FILE: 05. Who's Been Talking.flac
  Size: 26775040 Hash: B0AF9B125ADA8120DA74BA1F0A8BDB57 Accuracy: -m0
  Conclusion: CDDA 100%
  Signature: 03C0EC03FEEFFE11C5E47FA291AC4C8C841C8D08
FILE: 04. Junk Yard.flac
  Size: 40961072 Hash: E51B19A4784AA0A407F73F8287A41233 Accuracy: -m0
  Conclusion: CDDA 99%
  Signature: 73083007711DBF6F137942DD7E86E5BC35044081
FILE: 03. You Shook Me.flac
  Size: 33097848 Hash: 4C09A7CDD3BEDD43A36E31E88D1DB399 Accuracy: -m0
  Conclusion: CDDA 100%
  Signature: 2C03EF99019E154624514AC6FF78B32C30B441A7
FILE: 02. It Ain't Right.flac
  Size: 24592225 Hash: 13CD094D5E43407602F2CAA99ABE3E64 Accuracy: -m0
  Conclusion: CDDA 100%
  Signature: B955DC0B9A19CE5B092A2B3AAFE3D2A0DAFB58CD
FILE: 01. I'm Ready.flac
  Size: 30010065 Hash: D24DDC77DA9A57E614F3E6CA34720EDF Accuracy: -m0
  Conclusion: CDDA 100%
  Signature: 327DDC1B341DA07A272DCBB3A6A2A6EF4B597701
Прoдолжительность: 01:02:56
#777Страна-производитель диска: France
Номер по каталогу: Gitanes Jazz Productions - 547 433
Источник (релизер): свой рип
Трeклист:
01. Deal With It (4:00)
02. The Otherside (4:23)
03. Tribute To Luther Allison (4:37)
04. Shake (3:27)
05. Funny How Time Slips Away (4:37)
06. Why Can't We Live Together (5:44)
07. Ask Me Nothing 'Bout The Blues (4:54)
08. She's Giving Me The Blues (4:19)
09. Seduction (4:56)
10. Ta' Ta' You (4:57)
11. Don't Cry No More (3:11)
12. Ode To Billy Joe (3:31)
Код:
Exact Audio Copy V1.1 from 23. June 2015
EAC extraction logfile from 8. January 2020, 16:03
Lucky Peterson / Lucky Peterson
Used drive  : Optiarc DVD RW AD-7283S   Adapter: 1  ID: 0
Read mode               : Secure
Utilize accurate stream : Yes
Defeat audio cache      : Yes
Make use of C2 pointers : No
Read offset correction                      : 48
Overread into Lead-In and Lead-Out          : No
Fill up missing offset samples with silence : Yes
Delete leading and trailing silent blocks   : No
Null samples used in CRC calculations       : Yes
Used interface                              : Native Win32 interface for Win NT & 2000
Gap handling                                : Appended to previous track
Used output format              : User Defined Encoder
Selected bitrate                : 128 kBit/s
Quality                         : High
Add ID3 tag                     : No
Command line compressor         : C:\Program Files (x86)\Exact Audio Copy\Flac\flac.exe
Additional command line options : -V -8 -T "Genre=%genre%" -T "Artist=%artist%" -T "Title=%title%" -T "Album=%albumtitle%" -T "Date=%year%" -T "Tracknumber=%tracknr%" -T "Comment=%comment%" %source%
TOC of the extracted CD
     Track |   Start  |  Length  | Start sector | End sector
    ---------------------------------------------------------
        1  |  0:00.00 |  4:00.12 |         0    |    18011
        2  |  4:00.12 |  4:23.13 |     18012    |    37749
        3  |  8:23.25 |  4:36.62 |     37750    |    58511
        4  | 13:00.12 |  3:26.50 |     58512    |    74011
        5  | 16:26.62 |  4:37.25 |     74012    |    94811
        6  | 21:04.12 |  5:44.23 |     94812    |   120634
        7  | 26:48.35 |  4:54.02 |    120635    |   142686
        8  | 31:42.37 |  4:19.25 |    142687    |   162136
        9  | 36:01.62 |  4:56.35 |    162137    |   184371
       10  | 40:58.22 |  4:56.40 |    184372    |   206611
       11  | 45:54.62 |  3:11.13 |    206612    |   220949
       12  | 49:06.00 |  3:31.20 |    220950    |   236794
Track  1
     Filename F:\alexbras\1999 Lucky Peterson - Lucky Peterson (EU Gitanes 547 433-2)\01 Deal With It.wav
     Pre-gap length  0:00:02.00
     Peak level 98.7 %
     Extraction speed 2.3 X
     Track quality 100.0 %
     Test CRC 8826A4F2
     Copy CRC 8826A4F2
     Accurately ripped (confidence 25)  [FA95E3BD]  (AR v2)
     Copy OK
Track  2
     Filename F:\alexbras\1999 Lucky Peterson - Lucky Peterson (EU Gitanes 547 433-2)\02 The Otherside.wav
     Peak level 96.4 %
     Extraction speed 2.6 X
     Track quality 100.0 %
     Test CRC 750F04D9
     Copy CRC 750F04D9
     Accurately ripped (confidence 25)  [3CFA148A]  (AR v2)
     Copy OK
Track  3
     Filename F:\alexbras\1999 Lucky Peterson - Lucky Peterson (EU Gitanes 547 433-2)\03 Tribute To Luther Allison.wav
     Peak level 100.0 %
     Extraction speed 2.9 X
     Track quality 100.0 %
     Test CRC F2CDB4D3
     Copy CRC F2CDB4D3
     Accurately ripped (confidence 23)  [8421FDB3]  (AR v2)
     Copy OK
Track  4
     Filename F:\alexbras\1999 Lucky Peterson - Lucky Peterson (EU Gitanes 547 433-2)\04 Shake.wav
     Peak level 100.0 %
     Extraction speed 3.0 X
     Track quality 100.0 %
     Test CRC 21DC4A0A
     Copy CRC 21DC4A0A
     Accurately ripped (confidence 24)  [CE6DC330]  (AR v2)
     Copy OK
Track  5
     Filename F:\alexbras\1999 Lucky Peterson - Lucky Peterson (EU Gitanes 547 433-2)\05 Funny How Time Slips Away.wav
     Peak level 100.0 %
     Extraction speed 3.4 X
     Track quality 100.0 %
     Test CRC 0E9C47A7
     Copy CRC 0E9C47A7
     Accurately ripped (confidence 24)  [91890EA7]  (AR v2)
     Copy OK
Track  6
     Filename F:\alexbras\1999 Lucky Peterson - Lucky Peterson (EU Gitanes 547 433-2)\06 Why Can't We Live Together.wav
     Peak level 100.0 %
     Extraction speed 3.4 X
     Track quality 99.9 %
     Test CRC B08AFB37
     Copy CRC B08AFB37
     Accurately ripped (confidence 25)  [A26BCD74]  (AR v2)
     Copy OK
Track  7
     Filename F:\alexbras\1999 Lucky Peterson - Lucky Peterson (EU Gitanes 547 433-2)\07 Ask Me Nothing 'Bout The Blues.wav
     Peak level 100.0 %
     Extraction speed 3.8 X
     Track quality 100.0 %
     Test CRC C2951A65
     Copy CRC C2951A65
     Accurately ripped (confidence 25)  [82B8E651]  (AR v2)
     Copy OK
Track  8
     Filename F:\alexbras\1999 Lucky Peterson - Lucky Peterson (EU Gitanes 547 433-2)\08 She's Giving Me The Blues.wav
     Peak level 100.0 %
     Extraction speed 4.0 X
     Track quality 100.0 %
     Test CRC AE537A07
     Copy CRC AE537A07
     Accurately ripped (confidence 24)  [66781CAF]  (AR v2)
     Copy OK
Track  9
     Filename F:\alexbras\1999 Lucky Peterson - Lucky Peterson (EU Gitanes 547 433-2)\09 Seduction.wav
     Peak level 100.0 %
     Extraction speed 3.8 X
     Track quality 99.9 %
     Test CRC CA7EF545
     Copy CRC CA7EF545
     Accurately ripped (confidence 24)  [415F82A3]  (AR v2)
     Copy OK
Track 10
     Filename F:\alexbras\1999 Lucky Peterson - Lucky Peterson (EU Gitanes 547 433-2)\10 Ta' Ta' You.wav
     Peak level 100.0 %
     Extraction speed 4.4 X
     Track quality 100.0 %
     Test CRC 440941D1
     Copy CRC 440941D1
     Accurately ripped (confidence 25)  [900F707F]  (AR v2)
     Copy OK
Track 11
     Filename F:\alexbras\1999 Lucky Peterson - Lucky Peterson (EU Gitanes 547 433-2)\11 Don't Cry No More.wav
     Peak level 96.0 %
     Extraction speed 4.3 X
     Track quality 100.0 %
     Test CRC 08C53930
     Copy CRC 08C53930
     Accurately ripped (confidence 24)  [A48F969B]  (AR v2)
     Copy OK
Track 12
     Filename F:\alexbras\1999 Lucky Peterson - Lucky Peterson (EU Gitanes 547 433-2)\12 Ode To Billy Joe.wav
     Peak level 99.5 %
     Extraction speed 4.5 X
     Track quality 100.0 %
     Test CRC BB005BF0
     Copy CRC BB005BF0
     Accurately ripped (confidence 24)  [AE029A5D]  (AR v2)
     Copy OK
All tracks accurately ripped
No errors occurred
End of status report
==== Log checksum 2E4A098144BFF60C229C2225C4AA5FEF1CEA2955435692DB5344E9C5954FA56F ====
Код:
REM GENRE Blues
REM DATE 1999
REM DISCID A60C550C
REM COMMENT "ExactAudioCopy v1.1"
CATALOG 0000000000000
PERFORMER "Lucky Peterson"
TITLE "Lucky Peterson"
FILE "01 Deal With It.wav" WAVE
  TRACK 01 AUDIO
    TITLE "Deal With It"
    PERFORMER "Lucky Peterson"
    ISRC FRZ029803150
    INDEX 01 00:00:00
FILE "02 The Otherside.wav" WAVE
  TRACK 02 AUDIO
    TITLE "The Otherside"
    PERFORMER "Lucky Peterson"
    ISRC FRZ029803160
    INDEX 01 00:00:00
FILE "03 Tribute To Luther Allison.wav" WAVE
  TRACK 03 AUDIO
    TITLE "Tribute To Luther Allison"
    PERFORMER "Lucky Peterson"
    ISRC FRZ029803270
    INDEX 01 00:00:00
FILE "04 Shake.wav" WAVE
  TRACK 04 AUDIO
    TITLE "Shake"
    PERFORMER "Lucky Peterson"
    ISRC FRZ029803180
    INDEX 01 00:00:00
FILE "05 Funny How Time Slips Away.wav" WAVE
  TRACK 05 AUDIO
    TITLE "Funny How Time Slips Away"
    PERFORMER "Lucky Peterson"
    ISRC FRZ029803190
    INDEX 01 00:00:00
FILE "06 Why Can't We Live Together.wav" WAVE
  TRACK 06 AUDIO
    TITLE "Why Can't We Live Together"
    PERFORMER "Lucky Peterson"
    ISRC FRZ029803200
    INDEX 01 00:00:00
FILE "07 Ask Me Nothing 'Bout The Blues.wav" WAVE
  TRACK 07 AUDIO
    TITLE "Ask Me Nothing 'Bout The Blues"
    PERFORMER "Lucky Peterson"
    ISRC FRZ029803210
    INDEX 01 00:00:00
FILE "08 She's Giving Me The Blues.wav" WAVE
  TRACK 08 AUDIO
    TITLE "She's Giving Me The Blues"
    PERFORMER "Lucky Peterson"
    ISRC FRZ029803220
    INDEX 01 00:00:00
FILE "09 Seduction.wav" WAVE
  TRACK 09 AUDIO
    TITLE "Seduction"
    PERFORMER "Lucky Peterson"
    ISRC FRZ029803230
    INDEX 01 00:00:00
FILE "10 Ta' Ta' You.wav" WAVE
  TRACK 10 AUDIO
    TITLE "Ta' Ta' You"
    PERFORMER "Lucky Peterson"
    ISRC FRZ029803240
    INDEX 01 00:00:00
FILE "11 Don't Cry No More.wav" WAVE
  TRACK 11 AUDIO
    TITLE "Don't Cry No More"
    PERFORMER "Lucky Peterson"
    ISRC FRZ029803280
    INDEX 01 00:00:00
FILE "12 Ode To Billy Joe.wav" WAVE
  TRACK 12 AUDIO
    TITLE "Ode To Billy Joe"
    PERFORMER "Lucky Peterson"
    ISRC FRZ029803260
    INDEX 01 00:00:00
Код:
-----------------------
DON'T MODIFY THIS FILE
-----------------------
PERFORMER: auCDtect Task Manager, ver. 1.6.0 RC1 build 1.6.0.1
Copyright (c) 2008-2010 y-soft. All rights reserved
[url=http://y-soft.org]http://y-soft.org[/url]
ANALYZER: auCDtect: CD records authenticity detector, version 0.8.2
Copyright (c) 2004 Oleg Berngardt. All rights reserved.
Copyright (c) 2004 Alexander Djourik. All rights reserved.
FILE: 12 Ode To Billy Joe.flac
  Size: 20675582 Hash: 9540D34B3196A4B3C0C8E07035F5E6E4 Accuracy: -m0
  Conclusion: CDDA 100%
  Signature: FB906F87C464555D0C205B4533539D9609BC06B6
FILE: 11 Don't Cry No More.flac
  Size: 21046456 Hash: FAE4AA884AAE833B25FEF8F5FBC9A2E9 Accuracy: -m0
  Conclusion: CDDA 99%
  Signature: 81BEEBB0389E28B4813499780A163072792FB5E0
FILE: 10 Ta' Ta' You.flac
  Size: 28795227 Hash: C74780921FEC0BD512E48AC816DEAC38 Accuracy: -m0
  Conclusion: CDDA 100%
  Signature: 4E8170B8FDDF3E8F615D902B026C52BE87C53003
FILE: 09 Seduction.flac
  Size: 30365184 Hash: F511D335785E880F6E9011D6FC0E22A8 Accuracy: -m0
  Conclusion: CDDA 100%
  Signature: 5F380895238DFE2042B3182EC44875CB6484C142
FILE: 08 She's Giving Me The Blues.flac
  Size: 26180691 Hash: E0C424E44C7F7004F787075B4544428C Accuracy: -m0
  Conclusion: CDDA 100%
  Signature: DB29BC735B403BA813333538BA03DF90865B7213
FILE: 07 Ask Me Nothing 'Bout The Blues.flac
  Size: 30140652 Hash: 0E5EB800CE16AF165B87B45B32CEAB03 Accuracy: -m0
  Conclusion: CDDA 100%
  Signature: BD8CC058CB67FEEBADDDD8DAFA2E1E7A5419D2A4
FILE: 06 Why Can't We Live Together.flac
  Size: 31977131 Hash: 203A85396F3DBA305B706ABB187C1E31 Accuracy: -m0
  Conclusion: CDDA 100%
  Signature: 8555DEB4D35F3792A4544F7C6BA3D71B8A9F226C
FILE: 05 Funny How Time Slips Away.flac
  Size: 27958136 Hash: C217258B6B8171BDB1DD92ADC47043FF Accuracy: -m0
  Conclusion: CDDA 100%
  Signature: 8503F22A52E474A0642D0E085F78B7B7D2B3F8DB
FILE: 04 Shake.flac
  Size: 22620388 Hash: D281501DFF7F565551D885B916AC7342 Accuracy: -m0
  Conclusion: CDDA 100%
  Signature: F2D1C6EC79DC0793AD663E5A8C70D6DDB2B90BED
FILE: 03 Tribute To Luther Allison.flac
  Size: 29270843 Hash: 7E75F24D0B8EEB9D2E30F1F1BF5A041E Accuracy: -m0
  Conclusion: CDDA 100%
  Signature: 6CE19AFCA3FB94E067902B799A1F4B11D364A533
FILE: 02 The Otherside.flac
  Size: 28298504 Hash: 5B1EAA7DBE4EAE3755FBCCF2B35D3A93 Accuracy: -m0
  Conclusion: CDDA 100%
  Signature: 137FAFB844C4D961F4D7479F9982B670BC1FB3EC
FILE: 01 Deal With It.flac
  Size: 25038930 Hash: 6E97D48E70F90799019A7BAED080F81D Accuracy: -m0
  Conclusion: CDDA 100%
  Signature: 665D113554312C45110C4E3045E1EF0F6FB66767
Прoдолжительность: 00:52:37
#777Страна-производитель диска: France
Номер по каталогу: Dreyfus Jazz - FDM 36643-2
Источник (релизер): pazanenok
Трeклист:
01. Herbert Harper's Free Press News (5:23)
02. Lucky in Love (5:19)
03. Is It Because I'm Black (4:54)
04. Jody's Got Your Girl and Gone (3:58)
05. Smokestack Lightning (5:11)
06. Black Midnight Sun (5:03)
07. She's a Burglar (4:43)
08. Truly Your Friend (5:24)
09. Talkin' Loud and Saying Nothing (4:16)
10. Change Your Ways (3:05)
11. Thank You for Talkin'to Me Africa (6:00)
Код:
Exact Audio Copy V1.1 from 23. June 2015
EAC extraction logfile from 29. March 2020, 9:55
Lucky Peterson / Black Midnight Sun
Used drive  : PIONEER DVD-RW  DVR-219L   Adapter: 1  ID: 0
Read mode               : Secure
Utilize accurate stream : Yes
Defeat audio cache      : Yes
Make use of C2 pointers : No
Read offset correction                      : 6
Overread into Lead-In and Lead-Out          : No
Fill up missing offset samples with silence : Yes
Delete leading and trailing silent blocks   : No
Null samples used in CRC calculations       : Yes
Used interface                              : Native Win32 interface for Win NT & 2000
Gap handling                                : Appended to previous track
Used output format              : User Defined Encoder
Selected bitrate                : 768 kBit/s
Quality                         : High
Add ID3 tag                     : No
Command line compressor         : C:\Install\Exact Audio Copy\FLAC\FLAC.EXE
Additional command line options : -6 -V -T "ARTIST=%artist%" -T "TITLE=%title%" -T "ALBUM=%albumtitle%" -T "DATE=%year%" -T "TRACKNUMBER=%tracknr%" -T "GENRE=%genre%" -T "COMMENT=%comment%" -T "BAND=%albuminterpret%" -T "ALBUMARTIST=%albuminterpret%" -T "COMPOSER=%composer%" %haslyrics%--tag-from-file=LYRICS="%lyricsfile%"%haslyrics% -T "DISCNUMBER=%cdnumber%" -T "TOTALDISCS=%totalcds%" -T "TOTALTRACKS=%numtracks%" %hascover%--picture="%coverfile%"%hascover% %source% -o %dest%
TOC of the extracted CD
     Track |   Start  |  Length  | Start sector | End sector
    ---------------------------------------------------------
        1  |  0:00.00 |  5:22.57 |         0    |    24206
        2  |  5:22.57 |  5:19.00 |     24207    |    48131
        3  | 10:41.57 |  4:54.33 |     48132    |    70214
        4  | 15:36.15 |  3:57.60 |     70215    |    88049
        5  | 19:34.00 |  5:10.60 |     88050    |   111359
        6  | 24:44.60 |  5:02.67 |    111360    |   134076
        7  | 29:47.52 |  4:42.72 |    134077    |   155298
        8  | 34:30.49 |  5:24.08 |    155299    |   179606
        9  | 39:54.57 |  4:16.27 |    179607    |   198833
       10  | 44:11.09 |  3:04.43 |    198834    |   212676
       11  | 47:15.52 |  5:59.38 |    212677    |   239639
Track  1
     Filename E:\alexbras\2003 Lucky Peterson - Black Midnight Sun\01. Herbert Harper's Free Press News.wav
     Pre-gap length  0:00:02.00
     Peak level 100.0 %
     Extraction speed 2.7 X
     Track quality 100.0 %
     Test CRC 692B0311
     Copy CRC 692B0311
     Accurately ripped (confidence 31)  [8C6C2409]  (AR v2)
     Copy OK
Track  2
     Filename E:\alexbras\2003 Lucky Peterson - Black Midnight Sun\02. Lucky in Love.wav
     Peak level 100.0 %
     Extraction speed 2.7 X
     Track quality 100.0 %
     Test CRC 690B331D
     Copy CRC 690B331D
     Accurately ripped (confidence 31)  [66437A68]  (AR v2)
     Copy OK
Track  3
     Filename E:\alexbras\2003 Lucky Peterson - Black Midnight Sun\03. Is It Because I'm Black.wav
     Peak level 100.0 %
     Extraction speed 2.4 X
     Track quality 99.9 %
     Test CRC B0960697
     Copy CRC B0960697
     Accurately ripped (confidence 31)  [B6E8D5E3]  (AR v2)
     Copy OK
Track  4
     Filename E:\alexbras\2003 Lucky Peterson - Black Midnight Sun\04. Jody's Got Your Girl and Gone.wav
     Pre-gap length  0:00:01.00
     Peak level 100.0 %
     Extraction speed 2.6 X
     Track quality 100.0 %
     Test CRC F77D1A33
     Copy CRC F77D1A33
     Accurately ripped (confidence 31)  [9CAABDE6]  (AR v2)
     Copy OK
Track  5
     Filename E:\alexbras\2003 Lucky Peterson - Black Midnight Sun\05. Smokestack Lightning.wav
     Pre-gap length  0:00:02.00
     Peak level 100.0 %
     Extraction speed 2.7 X
     Track quality 100.0 %
     Test CRC 8EE48688
     Copy CRC 8EE48688
     Accurately ripped (confidence 31)  [FAFAD8B1]  (AR v2)
     Copy OK
Track  6
     Filename E:\alexbras\2003 Lucky Peterson - Black Midnight Sun\06. Black Midnight Sun.wav
     Pre-gap length  0:00:01.00
     Peak level 100.0 %
     Extraction speed 2.6 X
     Track quality 100.0 %
     Test CRC 86D38865
     Copy CRC 86D38865
     Accurately ripped (confidence 31)  [D9E7FE24]  (AR v2)
     Copy OK
Track  7
     Filename E:\alexbras\2003 Lucky Peterson - Black Midnight Sun\07. She's a Burglar.wav
     Pre-gap length  0:00:02.00
     Peak level 100.0 %
     Extraction speed 2.6 X
     Track quality 100.0 %
     Test CRC 9F8BF5DE
     Copy CRC 9F8BF5DE
     Accurately ripped (confidence 31)  [91D9285F]  (AR v2)
     Copy OK
Track  8
     Filename E:\alexbras\2003 Lucky Peterson - Black Midnight Sun\08. Truly Your Friend.wav
     Pre-gap length  0:00:01.00
     Peak level 100.0 %
     Extraction speed 2.7 X
     Track quality 100.0 %
     Test CRC 0113D5BB
     Copy CRC 0113D5BB
     Accurately ripped (confidence 31)  [039E8317]  (AR v2)
     Copy OK
Track  9
     Filename E:\alexbras\2003 Lucky Peterson - Black Midnight Sun\09. Talkin' Loud and Saying Nothing.wav
     Pre-gap length  0:00:02.00
     Peak level 100.0 %
     Extraction speed 2.6 X
     Track quality 100.0 %
     Test CRC C3541FFD
     Copy CRC C3541FFD
     Accurately ripped (confidence 31)  [E273F01E]  (AR v2)
     Copy OK
Track 10
     Filename E:\alexbras\2003 Lucky Peterson - Black Midnight Sun\10. Change Your Ways.wav
     Pre-gap length  0:00:02.00
     Peak level 100.0 %
     Extraction speed 2.1 X
     Track quality 99.9 %
     Test CRC 51DD6D78
     Copy CRC 51DD6D78
     Accurately ripped (confidence 31)  [B411FFEB]  (AR v2)
     Copy OK
Track 11
     Filename E:\alexbras\2003 Lucky Peterson - Black Midnight Sun\11. Thank You for Talkin'to Me Africa.wav
     Pre-gap length  0:00:02.00
     Peak level 100.0 %
     Extraction speed 2.7 X
     Track quality 100.0 %
     Test CRC 72BDEC51
     Copy CRC 72BDEC51
     Accurately ripped (confidence 30)  [BBD44C33]  (AR v2)
     Copy OK
All tracks accurately ripped
No errors occurred
End of status report
---- CUETools DB Plugin V2.1.6
[CTDB TOCID: x6VVe8E5Kyzz5QZ3dnBuzNkYaLA-] found
Submit result: x6VVe8E5Kyzz5QZ3dnBuzNkYaLA- has been confirmed
Track | CTDB Status
  1   | (88/91) Accurately ripped
  2   | (89/91) Accurately ripped
  3   | (89/91) Accurately ripped
  4   | (90/91) Accurately ripped
  5   | (89/91) Accurately ripped
  6   | (89/91) Accurately ripped
  7   | (89/91) Accurately ripped
  8   | (88/91) Accurately ripped
  9   | (89/91) Accurately ripped
 10   | (89/91) Accurately ripped
 11   | (87/91) Accurately ripped
==== Log checksum ACA24C526DE261B8629A946C7CFA7D69EEFAC862918497ACE328AE43F20DB881 ====
Код:
REM GENRE Blues
REM DATE 2003
REM DISCID AA0C7B0B
REM COMMENT "ExactAudioCopy v1.1"
PERFORMER "Lucky Peterson"
TITLE "Black Midnight Sun"
FILE "01. Herbert Harper's Free Press News.wav" WAVE
  TRACK 01 AUDIO
    TITLE "Herbert Harper's Free Press News"
    PERFORMER "Lucky Peterson"
    INDEX 01 00:00:00
FILE "02. Lucky in Love.wav" WAVE
  TRACK 02 AUDIO
    TITLE "Lucky in Love"
    PERFORMER "Lucky Peterson"
    INDEX 01 00:00:00
FILE "03. Is It Because I'm Black.wav" WAVE
  TRACK 03 AUDIO
    TITLE "Is It Because I'm Black"
    PERFORMER "Lucky Peterson"
    INDEX 01 00:00:00
  TRACK 04 AUDIO
    TITLE "Jody's Got Your Girl and Gone"
    PERFORMER "Lucky Peterson"
    INDEX 00 04:53:33
FILE "04. Jody's Got Your Girl and Gone.wav" WAVE
    INDEX 01 00:00:00
  TRACK 05 AUDIO
    TITLE "Smokestack Lightning"
    PERFORMER "Lucky Peterson"
    INDEX 00 03:55:60
FILE "05. Smokestack Lightning.wav" WAVE
    INDEX 01 00:00:00
  TRACK 06 AUDIO
    TITLE "Black Midnight Sun"
    PERFORMER "Lucky Peterson"
    INDEX 00 05:09:60
FILE "06. Black Midnight Sun.wav" WAVE
    INDEX 01 00:00:00
  TRACK 07 AUDIO
    TITLE "She's a Burglar"
    PERFORMER "Lucky Peterson"
    INDEX 00 05:00:67
FILE "07. She's a Burglar.wav" WAVE
    INDEX 01 00:00:00
  TRACK 08 AUDIO
    TITLE "Truly Your Friend"
    PERFORMER "Lucky Peterson"
    INDEX 00 04:41:72
FILE "08. Truly Your Friend.wav" WAVE
    INDEX 01 00:00:00
  TRACK 09 AUDIO
    TITLE "Talkin' Loud and Saying Nothing"
    PERFORMER "Lucky Peterson"
    INDEX 00 05:22:08
FILE "09. Talkin' Loud and Saying Nothing.wav" WAVE
    INDEX 01 00:00:00
  TRACK 10 AUDIO
    TITLE "Change Your Ways"
    PERFORMER "Lucky Peterson"
    INDEX 00 04:14:27
FILE "10. Change Your Ways.wav" WAVE
    INDEX 01 00:00:00
  TRACK 11 AUDIO
    TITLE "Thank You for Talkin'to Me Africa"
    PERFORMER "Lucky Peterson"
    INDEX 00 03:02:43
FILE "11. Thank You for Talkin'to Me Africa.wav" WAVE
    INDEX 01 00:00:00
Код:
-----------------------
DON'T MODIFY THIS FILE
-----------------------
PERFORMER: auCDtect Task Manager, ver. 1.6.0 RC1 build 1.6.0.1
Copyright (c) 2008-2010 y-soft. All rights reserved
[url=http://y-soft.org]http://y-soft.org[/url]
ANALYZER: auCDtect: CD records authenticity detector, version 0.8.2
Copyright (c) 2004 Oleg Berngardt. All rights reserved.
Copyright (c) 2004 Alexander Djourik. All rights reserved.
FILE: 11. Thank You for Talkin'to Me Africa.flac
  Size: 39171195 Hash: F78148923F3D194B4F56962A639C5184 Accuracy: -m0
  Conclusion: CDDA 100%
  Signature: 60F0CE184B84116D197E2432E9DAA762321FC030
FILE: 10. Change Your Ways.flac
  Size: 20293022 Hash: BC7AE7749CBD4D45045DD6D7A0CBBE95 Accuracy: -m0
  Conclusion: CDDA 100%
  Signature: 21600D8C8E45DBB5F8DA3F6CFFB43C2DBAF3A59C
FILE: 09. Talkin' Loud and Saying Nothing.flac
  Size: 28148741 Hash: F10C4CD63EDC115BA72F5046BB6F7991 Accuracy: -m0
  Conclusion: CDDA 100%
  Signature: 90EFED8F55A465F735A02F56C74D41ED59DCD8EC
FILE: 08. Truly Your Friend.flac
  Size: 35436544 Hash: B97F10D0C723DBB2E2B9A1455939D638 Accuracy: -m0
  Conclusion: CDDA 100%
  Signature: D129A8FCCB6978C237B3B2BB727399AA723B9515
FILE: 07. She's a Burglar.flac
  Size: 30346640 Hash: 50F959111A4584B6521A4C614C3318DF Accuracy: -m0
  Conclusion: CDDA 100%
  Signature: 6CD2387D167182B9475BC40376CD82BD9404EBD2
FILE: 06. Black Midnight Sun.flac
  Size: 29842202 Hash: 9F6A0E61A0FA1366048205D661541EC8 Accuracy: -m0
  Conclusion: CDDA 100%
  Signature: 200C5882C8FF52D055014E462B95F5D9460956F9
FILE: 05. Smokestack Lightning.flac
  Size: 36383645 Hash: 4EA475B0D405D6A823C30C67F405FB05 Accuracy: -m0
  Conclusion: CDDA 100%
  Signature: 85D8AA26E80909214A71BB01652820016C9C7645
FILE: 04. Jody's Got Your Girl and Gone.flac
  Size: 26117251 Hash: 522AEA12506D7D8689E462B393560516 Accuracy: -m0
  Conclusion: CDDA 100%
  Signature: A0B15D39B6C25D293B06C0945632A8458C934E72
FILE: 03. Is It Because I'm Black.flac
  Size: 33018455 Hash: 7BF7370549706FB4C49162E5B646A3B5 Accuracy: -m0
  Conclusion: CDDA 100%
  Signature: 9D29E387217B3761B9A5F958B90EA94ACB525804
FILE: 02. Lucky in Love.flac
  Size: 36323187 Hash: 3DD9608464ED7B58D2BD0364788826A4 Accuracy: -m0
  Conclusion: CDDA 99%
  Signature: EC735A7E2B054DC3A9B96A8BDE336E0694D4E558
FILE: 01. Herbert Harper's Free Press News.flac
  Size: 37036897 Hash: 598D784AF5AC5EC6C7C2FACFA6312086 Accuracy: -m0
  Conclusion: CDDA 100%
  Signature: 313BA840235849575762C57A104F08B90118CFC1
Прoдолжительность: 00:53:15
#777Страна-производитель диска: Unofficial Release, Russia. Released: 2005
Номер по каталогу: JSP Records - JSP5100
Источник (релизер): свой рип
Трeклист:
01. Strange Things Happenin' Every Day (4:35)
02. Time To Go (4:31)
03. Cripple Man (5:04)
04. Somewhere In Between (5:01)
05. If You Can't Fix It (5:35)
06. Never Take Sand To The Beach (4:13)
07. Get Down (6:33)
08. Too Young To Die (7:45)
09. Don't Give The Devil No Ground (3:44)
10. More Harm Than Good (4:06)
Код:
Exact Audio Copy V1.1 from 23. June 2015
EAC extraction logfile from 10. September 2019, 16:01
Lucky & James Peterson / If You Can't  Fix It
Used drive  : Optiarc DVD RW AD-7283S   Adapter: 1  ID: 0
Read mode               : Secure
Utilize accurate stream : Yes
Defeat audio cache      : Yes
Make use of C2 pointers : No
Read offset correction                      : 48
Overread into Lead-In and Lead-Out          : No
Fill up missing offset samples with silence : Yes
Delete leading and trailing silent blocks   : No
Null samples used in CRC calculations       : Yes
Used interface                              : Native Win32 interface for Win NT & 2000
Gap handling                                : Appended to previous track
Used output format              : User Defined Encoder
Selected bitrate                : 128 kBit/s
Quality                         : High
Add ID3 tag                     : No
Command line compressor         : C:\Program Files (x86)\Exact Audio Copy\Flac\flac.exe
Additional command line options : -V -8 -T "Genre=%genre%" -T "Artist=%artist%" -T "Title=%title%" -T "Album=%albumtitle%" -T "Date=%year%" -T "Tracknumber=%tracknr%" -T "Comment=%comment%" %source%
TOC of the extracted CD
     Track |   Start  |  Length  | Start sector | End sector
    ---------------------------------------------------------
        1  |  0:00.00 |  4:34.38 |         0    |    20587
        2  |  4:34.38 |  4:31.35 |     20588    |    40947
        3  |  9:05.73 |  5:04.35 |     40948    |    63782
        4  | 14:10.33 |  5:00.57 |     63783    |    86339
        5  | 19:11.15 |  5:35.05 |     86340    |   111469
        6  | 24:46.20 |  4:12.66 |    111470    |   130435
        7  | 28:59.11 |  6:33.20 |    130436    |   159930
        8  | 35:32.31 |  7:45.35 |    159931    |   194840
        9  | 43:17.66 |  3:43.65 |    194841    |   211630
       10  | 47:01.56 |  4:06.20 |    211631    |   230100
Track  1
     Filename L:\alexbras\2004 Lucky & James Peterson - If You Can't Fix It (2005 JSP5100)\01 Strange Things Happenin' Every Day.wav
     Pre-gap length  0:00:02.00
     Peak level 99.2 %
     Extraction speed 4.6 X
     Track quality 100.0 %
     Test CRC 930D0066
     Copy CRC 930D0066
     Cannot be verified as accurate (confidence 9)  [4F7E3AAB], AccurateRip returned [881B6DF3]  (AR v2)
     Copy OK
Track  2
     Filename L:\alexbras\2004 Lucky & James Peterson - If You Can't Fix It (2005 JSP5100)\02 Time To Go.wav
     Pre-gap length  0:00:02.58
     Peak level 99.2 %
     Extraction speed 5.2 X
     Track quality 100.0 %
     Test CRC 1E3F6730
     Copy CRC 1E3F6730
     Cannot be verified as accurate (confidence 9)  [D9E9751D], AccurateRip returned [D8628F97]  (AR v2)
     Copy OK
Track  3
     Filename L:\alexbras\2004 Lucky & James Peterson - If You Can't Fix It (2005 JSP5100)\03 Cripple Man.wav
     Pre-gap length  0:00:02.57
     Peak level 99.2 %
     Extraction speed 4.3 X
     Track quality 99.9 %
     Test CRC ABFFD949
     Copy CRC ABFFD949
     Cannot be verified as accurate (confidence 9)  [71499E7A], AccurateRip returned [B4630C05]  (AR v2)
     Copy OK
Track  4
     Filename L:\alexbras\2004 Lucky & James Peterson - If You Can't Fix It (2005 JSP5100)\04 Somewhere In Between.wav
     Pre-gap length  0:00:02.58
     Peak level 99.2 %
     Extraction speed 4.7 X
     Track quality 99.9 %
     Test CRC 7132F08C
     Copy CRC 7132F08C
     Cannot be verified as accurate (confidence 9)  [8B87B6D6], AccurateRip returned [805BA00C]  (AR v2)
     Copy OK
Track  5
     Filename L:\alexbras\2004 Lucky & James Peterson - If You Can't Fix It (2005 JSP5100)\05 If You Can't Fix It.wav
     Pre-gap length  0:00:02.57
     Peak level 99.2 %
     Extraction speed 6.9 X
     Track quality 100.0 %
     Test CRC D6487CEE
     Copy CRC D6487CEE
     Cannot be verified as accurate (confidence 9)  [584812EB], AccurateRip returned [13FDD073]  (AR v2)
     Copy OK
Track  6
     Filename L:\alexbras\2004 Lucky & James Peterson - If You Can't Fix It (2005 JSP5100)\06 Never Take Sand To The Beach.wav
     Pre-gap length  0:00:02.57
     Peak level 99.2 %
     Extraction speed 7.1 X
     Track quality 100.0 %
     Test CRC F10F3C8F
     Copy CRC F10F3C8F
     Cannot be verified as accurate (confidence 9)  [8CBA1784], AccurateRip returned [A79AFFF2]  (AR v2)
     Copy OK
Track  7
     Filename L:\alexbras\2004 Lucky & James Peterson - If You Can't Fix It (2005 JSP5100)\07 Get Down.wav
     Pre-gap length  0:00:02.57
     Peak level 99.2 %
     Extraction speed 7.9 X
     Track quality 100.0 %
     Test CRC 5DC160E3
     Copy CRC 5DC160E3
     Cannot be verified as accurate (confidence 9)  [CD4B45F1], AccurateRip returned [A9F2C741]  (AR v2)
     Copy OK
Track  8
     Filename L:\alexbras\2004 Lucky & James Peterson - If You Can't Fix It (2005 JSP5100)\08 Too Young To Die.wav
     Pre-gap length  0:00:02.57
     Peak level 99.2 %
     Extraction speed 6.9 X
     Track quality 99.9 %
     Test CRC 737217EB
     Copy CRC 737217EB
     Cannot be verified as accurate (confidence 9)  [B0A1A967], AccurateRip returned [F9CB571B]  (AR v2)
     Copy OK
Track  9
     Filename L:\alexbras\2004 Lucky & James Peterson - If You Can't Fix It (2005 JSP5100)\09 Don't Give The Devil No Ground.wav
     Pre-gap length  0:00:02.57
     Peak level 99.2 %
     Extraction speed 8.2 X
     Track quality 100.0 %
     Test CRC C5FD1079
     Copy CRC C5FD1079
     Cannot be verified as accurate (confidence 9)  [FCA51870], AccurateRip returned [F34BD682]  (AR v2)
     Copy OK
Track 10
     Filename L:\alexbras\2004 Lucky & James Peterson - If You Can't Fix It (2005 JSP5100)\10 More Harm Than Good.wav
     Pre-gap length  0:00:02.57
     Peak level 99.2 %
     Extraction speed 8.4 X
     Track quality 100.0 %
     Test CRC EC7F00EB
     Copy CRC EC7F00EB
     Cannot be verified as accurate (confidence 9)  [FB475CB3], AccurateRip returned [F1C246B7]  (AR v2)
     Copy OK
No tracks could be verified as accurate
You may have a different pressing from the one(s) in the database
No errors occurred
End of status report
==== Log checksum 77EA07E7C6B68CE38947E7EC97630ACC11F5FF8772368618C0446EC027AA06C5 ====
Код:
REM GENRE Blues
REM DATE 2004
REM DISCID 8E0BFC0A
REM COMMENT "ExactAudioCopy v1.1"
PERFORMER "Lucky & James Peterson"
TITLE "If You Can't  Fix It"
FILE "01 Strange Things Happenin' Every Day.wav" WAVE
  TRACK 01 AUDIO
    TITLE "Strange Things Happenin' Every Day"
    PERFORMER "Lucky & James Peterson"
    ISRC GBAJD0410001
    INDEX 01 00:00:00
  TRACK 02 AUDIO
    TITLE "Time To Go"
    PERFORMER "Lucky & James Peterson"
    ISRC GBAJD0410002
    INDEX 00 04:31:55
FILE "02 Time To Go.wav" WAVE
    INDEX 01 00:00:00
  TRACK 03 AUDIO
    TITLE "Cripple Man"
    PERFORMER "Lucky & James Peterson"
    ISRC GBAJD0410003
    INDEX 00 04:28:53
FILE "03 Cripple Man.wav" WAVE
    INDEX 01 00:00:00
  TRACK 04 AUDIO
    TITLE "Somewhere In Between"
    PERFORMER "Lucky & James Peterson"
    ISRC GBAJD0410004
    INDEX 00 05:01:52
FILE "04 Somewhere In Between.wav" WAVE
    INDEX 01 00:00:00
  TRACK 05 AUDIO
    TITLE "If You Can't Fix It"
    PERFORMER "Lucky & James Peterson"
    ISRC GBAJD0410005
    INDEX 00 04:58:00
FILE "05 If You Can't Fix It.wav" WAVE
    INDEX 01 00:00:00
  TRACK 06 AUDIO
    TITLE "Never Take Sand To The Beach"
    PERFORMER "Lucky & James Peterson"
    ISRC GBAJD0410006
    INDEX 00 05:32:23
FILE "06 Never Take Sand To The Beach.wav" WAVE
    INDEX 01 00:00:00
  TRACK 07 AUDIO
    TITLE "Get Down"
    PERFORMER "Lucky & James Peterson"
    ISRC GBAJD0410007
    INDEX 00 04:10:09
FILE "07 Get Down.wav" WAVE
    INDEX 01 00:00:00
  TRACK 08 AUDIO
    TITLE "Too Young To Die"
    PERFORMER "Lucky & James Peterson"
    ISRC GBAJD0410008
    INDEX 00 06:30:38
FILE "08 Too Young To Die.wav" WAVE
    INDEX 01 00:00:00
  TRACK 09 AUDIO
    TITLE "Don't Give The Devil No Ground"
    PERFORMER "Lucky & James Peterson"
    ISRC GBAJD0410009
    INDEX 00 07:42:53
FILE "09 Don't Give The Devil No Ground.wav" WAVE
    INDEX 01 00:00:00
  TRACK 10 AUDIO
    TITLE "More Harm Than Good"
    PERFORMER "Lucky & James Peterson"
    ISRC GBAJD0410010
    INDEX 00 03:41:08
FILE "10 More Harm Than Good.wav" WAVE
    INDEX 01 00:00:00
Код:
-----------------------
DON'T MODIFY THIS FILE
-----------------------
PERFORMER: auCDtect Task Manager, ver. 1.6.0 RC1 build 1.6.0.1
Copyright (c) 2008-2010 y-soft. All rights reserved
[url=http://y-soft.org]http://y-soft.org[/url]
ANALYZER: auCDtect: CD records authenticity detector, version 0.8.2
Copyright (c) 2004 Oleg Berngardt. All rights reserved.
Copyright (c) 2004 Alexander Djourik. All rights reserved.
FILE: 10 More Harm Than Good.flac
  Size: 31296342 Hash: EF0DD7AAB6A0DEA56D09E218DCEF1B2A Accuracy: -m0
  Conclusion: CDDA 99%
  Signature: 05EEC075B334A4343E8B13D87FDE23CE17F2BFE4
FILE: 09 Don't Give The Devil No Ground.flac
  Size: 28576014 Hash: EEF8B25CFB8D4C4D9783D7A226670BD9 Accuracy: -m0
  Conclusion: CDDA 100%
  Signature: 6376C9782C7A9C33F2CAC59F8A9F0FA3C7C32964
FILE: 08 Too Young To Die.flac
  Size: 55303641 Hash: 973076668C8C0F9DC2C9591061FEBFFA Accuracy: -m0
  Conclusion: CDDA 100%
  Signature: 78C324CAFD521B6DD429FE24A542A6EB4C2E1CEF
FILE: 07 Get Down.flac
  Size: 44810201 Hash: E14CAA2306DDA83EF0AC67E373E5AEF1 Accuracy: -m0
  Conclusion: CDDA 100%
  Signature: 2CF7CB75E0E2A90E84077DBADBFB927382CAAF75
FILE: 06 Never Take Sand To The Beach.flac
  Size: 29222110 Hash: D2B18A8CEF273E8A7BEB886305A9E227 Accuracy: -m0
  Conclusion: CDDA 100%
  Signature: 27D52C8C23519F35D745B35BEC8FD1A0C17D1785
FILE: 05 If You Can't Fix It.flac
  Size: 38413901 Hash: 64839940BFB02487E6F3553FB7884AFF Accuracy: -m0
  Conclusion: CDDA 100%
  Signature: 11990B882B3DBC31E53EDED3E53162724201B76E
FILE: 04 Somewhere In Between.flac
  Size: 38350124 Hash: 50F35527F51A2A062D7E39606BC6B91A Accuracy: -m0
  Conclusion: CDDA 100%
  Signature: 1A7B8A55F8E9AB09D076E71C0FAC37D27CFA4E7F
FILE: 03 Cripple Man.flac
  Size: 38350391 Hash: 257D68F104C055F0C9E294189FF49332 Accuracy: -m0
  Conclusion: CDDA 100%
  Signature: 7617F4D6ABE4837F0CBA53713C13E211C6B103C6
FILE: 02 Time To Go.flac
  Size: 31995568 Hash: 2B58F09508D417A4693249B1A87F9A6B Accuracy: -m0
  Conclusion: CDDA 99%
  Signature: 8B7342468CA57A9523414EC2784B4D123C28C603
FILE: 01 Strange Things Happenin' Every Day.flac
  Size: 35565725 Hash: 71AFB8E0B341AF8D6011C118F074BDFE Accuracy: -m0
  Conclusion: CDDA 99%
  Signature: 5561C8383926A9D1ED795F3FE716BB3CE0F202BD
Прoдолжительность: 00:51:08
#777Страна-производитель диска: Austria
Номер по каталогу: Harmonia Mundi, Jazz Village - JV 570076.77
Источник (релизер): ruskaval
Трeклист:
01. Boogie Thang (10:57)
02. Funky Broadway (4:01)
03. I Can See Clearly Now (9:41)
04. It Ain't Safe (7:22)
05. Trouble (8:23)
06. Lock Out Of Love (3:36)
07. Make My Move On You (3:57)
08. Tribute To Stevie Ray Vaughan (1:39)
09. Nana Jarnell (6:37)
10. I'm Still Here (6:29)
11. Goin' Down Slow (I've Had My Fun) (2:01)
12. Jody's Got Your Girl And Gone (3:11)
13. Boogie Woogie Blues Party (4:29)
14. Johnny B. Goode - ''Encore'' (6:13)
Код:
Exact Audio Copy V1.1 from 23. June 2015
EAC extraction logfile from 7. August 2016, 14:10
Lucky Peterson / Live In Marciac July 28th 2014
Used drive  : PLEXTOR DVDR   PX-L890SA   Adapter: 1  ID: 1
Read mode               : Secure
Utilize accurate stream : Yes
Defeat audio cache      : Yes
Make use of C2 pointers : No
Read offset correction                      : 6
Overread into Lead-In and Lead-Out          : No
Fill up missing offset samples with silence : Yes
Delete leading and trailing silent blocks   : No
Null samples used in CRC calculations       : Yes
Used interface                              : Native Win32 interface for Win NT & 2000
Gap handling                                : Appended to previous track
Used output format              : User Defined Encoder
Selected bitrate                : 128 kBit/s
Quality                         : High
Add ID3 tag                     : No
Command line compressor         : C:\Program Files (x86)\Exact Audio Copy\FLAC\FLAC.EXE
Additional command line options : -8 -V -T "ARTIST=%artist%" -T "TITLE=%title%" -T "ALBUM=%albumtitle%" -T "DATE=%year%" -T "TRACKNUMBER=%tracknr%" -T "TOTALTRACKS=%numtracks%" -T "GENRE=%genre%" -T "ALBUMARTIST=%albumartist%" -T "ALBUM ARTIST=%albumartist%" -T "COMMENT=EAC Secure Mode, Test & Copy, AccurateRip, FLAC -8" %source%
TOC of the extracted CD
     Track |   Start  |  Length  | Start sector | End sector
    ---------------------------------------------------------
        1  |  0:00.00 | 10:56.46 |         0    |    49245
        2  | 10:56.46 |  4:00.50 |     49246    |    67295
        3  | 14:57.21 |  9:41.30 |     67296    |   110900
        4  | 24:38.51 |  7:22.32 |    110901    |   144082
        5  | 32:01.08 |  8:22.51 |    144083    |   181783
        6  | 40:23.59 |  3:35.73 |    181784    |   197981
        7  | 43:59.57 |  3:56.52 |    197982    |   215733
        8  | 47:56.34 |  1:38.53 |    215734    |   223136
        9  | 49:35.12 |  6:36.63 |    223137    |   252899
       10  | 56:12.00 |  6:28.59 |    252900    |   282058
       11  | 62:40.59 |  2:01.21 |    282059    |   291154
       12  | 64:42.05 |  3:10.60 |    291155    |   305464
       13  | 67:52.65 |  4:29.07 |    305465    |   325646
       14  | 72:21.72 |  6:13.05 |    325647    |   353626
Track  1
     Filename D:\Flac Rips\01 - Boogie Thang.wav
     Pre-gap length  0:00:02.00
     Peak level 100.0 %
     Extraction speed 4.4 X
     Track quality 100.0 %
     Test CRC 8056379B
     Copy CRC 8056379B
     Accurately ripped (confidence 2)  [65D35023]  (AR v2)
     Copy OK
Track  2
     Filename D:\Flac Rips\02 - Funky Broadway.wav
     Peak level 99.7 %
     Extraction speed 3.8 X
     Track quality 99.9 %
     Test CRC 57BB6C0F
     Copy CRC 57BB6C0F
     Accurately ripped (confidence 2)  [B6D80C5E]  (AR v2)
     Copy OK
Track  3
     Filename D:\Flac Rips\03 - I Can See Clearly Now.wav
     Peak level 100.0 %
     Extraction speed 5.6 X
     Track quality 100.0 %
     Test CRC 63C5DA2A
     Copy CRC 63C5DA2A
     Accurately ripped (confidence 2)  [6A57188C]  (AR v2)
     Copy OK
Track  4
     Filename D:\Flac Rips\04 - It Ain't Safe.wav
     Peak level 98.0 %
     Extraction speed 6.0 X
     Track quality 100.0 %
     Test CRC 3BD59104
     Copy CRC 3BD59104
     Accurately ripped (confidence 2)  [54DC3D3D]  (AR v2)
     Copy OK
Track  5
     Filename D:\Flac Rips\05 - Trouble.wav
     Peak level 99.4 %
     Extraction speed 6.5 X
     Track quality 100.0 %
     Test CRC CD38CB2C
     Copy CRC CD38CB2C
     Accurately ripped (confidence 2)  [BC973CF2]  (AR v2)
     Copy OK
Track  6
     Filename D:\Flac Rips\06 - Lock Out Of Love.wav
     Peak level 99.4 %
     Extraction speed 6.3 X
     Track quality 100.0 %
     Test CRC CF4A9B7E
     Copy CRC CF4A9B7E
     Accurately ripped (confidence 2)  [E93683E9]  (AR v2)
     Copy OK
Track  7
     Filename D:\Flac Rips\07 - Make My Move On You.wav
     Peak level 99.8 %
     Extraction speed 5.2 X
     Track quality 99.9 %
     Test CRC AAB80090
     Copy CRC AAB80090
     Accurately ripped (confidence 2)  [95B34377]  (AR v2)
     Copy OK
Track  8
     Filename D:\Flac Rips\08 - Tribute To Stevie Ray Vaughan.wav
     Peak level 98.3 %
     Extraction speed 5.6 X
     Track quality 100.0 %
     Test CRC 5B9FCF11
     Copy CRC 5B9FCF11
     Accurately ripped (confidence 2)  [C1484B22]  (AR v2)
     Copy OK
Track  9
     Filename D:\Flac Rips\09 - Nana Jarnell.wav
     Peak level 99.4 %
     Extraction speed 7.2 X
     Track quality 100.0 %
     Test CRC 8FA84C2C
     Copy CRC 8FA84C2C
     Accurately ripped (confidence 2)  [E7C920C5]  (AR v2)
     Copy OK
Track 10
     Filename D:\Flac Rips\10 - I'm Still Here.wav
     Peak level 100.0 %
     Extraction speed 6.4 X
     Track quality 99.9 %
     Test CRC 3DA1EC9B
     Copy CRC 3DA1EC9B
     Accurately ripped (confidence 2)  [BDE48852]  (AR v2)
     Copy OK
Track 11
     Filename D:\Flac Rips\11 - Goin' Down Slow (I've Had My Fun).wav
     Peak level 94.9 %
     Extraction speed 6.4 X
     Track quality 100.0 %
     Test CRC 94F12170
     Copy CRC 94F12170
     Accurately ripped (confidence 2)  [2EEA4C01]  (AR v2)
     Copy OK
Track 12
     Filename D:\Flac Rips\12 - Jody's Got Your Girl And Gone.wav
     Peak level 99.0 %
     Extraction speed 7.2 X
     Track quality 100.0 %
     Test CRC 54225274
     Copy CRC 54225274
     Accurately ripped (confidence 2)  [F6824C0F]  (AR v2)
     Copy OK
Track 13
     Filename D:\Flac Rips\13 - Boogie Woogie Blues Party.wav
     Peak level 100.0 %
     Extraction speed 7.6 X
     Track quality 100.0 %
     Test CRC 65310A91
     Copy CRC 65310A91
     Accurately ripped (confidence 2)  [437AAD0D]  (AR v2)
     Copy OK
Track 14
     Filename D:\Flac Rips\14 - Johnny B. Goode - ''Encore''.wav
     Peak level 100.0 %
     Extraction speed 8.1 X
     Track quality 100.0 %
     Test CRC C93F722E
     Copy CRC C93F722E
     Accurately ripped (confidence 2)  [01F39EA3]  (AR v2)
     Copy OK
All tracks accurately ripped
No errors occurred
End of status report
---- CUETools DB Plugin V2.1.6
[CTDB TOCID: JpLD41abGIc6xUOdd.saxEFWysk-] found
Submit result: JpLD41abGIc6xUOdd.saxEFWysk- has been confirmed
Track | CTDB Status
  1   | (8/8) Accurately ripped
  2   | (8/8) Accurately ripped
  3   | (8/8) Accurately ripped
  4   | (8/8) Accurately ripped
  5   | (8/8) Accurately ripped
  6   | (8/8) Accurately ripped
  7   | (8/8) Accurately ripped
  8   | (8/8) Accurately ripped
  9   | (8/8) Accurately ripped
 10   | (8/8) Accurately ripped
 11   | (8/8) Accurately ripped
 12   | (8/8) Accurately ripped
 13   | (8/8) Accurately ripped
 14   | (8/8) Accurately ripped
==== Log checksum 0FEB542B06E480ED36C745803A8E3285A5BE4210BD1EF10E84433F95E83CE7D2 ====
Код:
REM GENRE Blues
REM DATE 2014
REM DISCID EE126B0E
REM COMMENT "ExactAudioCopy v1.1"
PERFORMER "Lucky Peterson"
TITLE "Live In Marciac July 28th 2014"
FILE "01 - Boogie Thang.wav" WAVE
  TRACK 01 AUDIO
    TITLE "Boogie Thang"
    PERFORMER "Lucky Peterson"
    INDEX 01 00:00:00
FILE "02 - Funky Broadway.wav" WAVE
  TRACK 02 AUDIO
    TITLE "Funky Broadway"
    PERFORMER "Lucky Peterson"
    INDEX 01 00:00:00
FILE "03 - I Can See Clearly Now.wav" WAVE
  TRACK 03 AUDIO
    TITLE "I Can See Clearly Now"
    PERFORMER "Lucky Peterson"
    INDEX 01 00:00:00
FILE "04 - It Ain't Safe.wav" WAVE
  TRACK 04 AUDIO
    TITLE "It Ain't Safe"
    PERFORMER "Lucky Peterson"
    INDEX 01 00:00:00
FILE "05 - Trouble.wav" WAVE
  TRACK 05 AUDIO
    TITLE "Trouble"
    PERFORMER "Lucky Peterson"
    INDEX 01 00:00:00
FILE "06 - Lock Out Of Love.wav" WAVE
  TRACK 06 AUDIO
    TITLE "Lock Out Of Love"
    PERFORMER "Lucky Peterson"
    INDEX 01 00:00:00
FILE "07 - Make My Move On You.wav" WAVE
  TRACK 07 AUDIO
    TITLE "Make My Move On You"
    PERFORMER "Lucky Peterson"
    INDEX 01 00:00:00
FILE "08 - Tribute To Stevie Ray Vaughan.wav" WAVE
  TRACK 08 AUDIO
    TITLE "Tribute To Stevie Ray Vaughan"
    PERFORMER "Lucky Peterson"
    INDEX 01 00:00:00
FILE "09 - Nana Jarnell.wav" WAVE
  TRACK 09 AUDIO
    TITLE "Nana Jarnell"
    PERFORMER "Lucky Peterson"
    INDEX 01 00:00:00
FILE "10 - I'm Still Here.wav" WAVE
  TRACK 10 AUDIO
    TITLE "I'm Still Here"
    PERFORMER "Lucky Peterson"
    INDEX 01 00:00:00
FILE "11 - Goin' Down Slow (I've Had My Fun).wav" WAVE
  TRACK 11 AUDIO
    TITLE "Goin' Down Slow (I've Had My Fun)"
    PERFORMER "Lucky Peterson"
    INDEX 01 00:00:00
FILE "12 - Jody's Got Your Girl And Gone.wav" WAVE
  TRACK 12 AUDIO
    TITLE "Jody's Got Your Girl And Gone"
    PERFORMER "Lucky Peterson"
    INDEX 01 00:00:00
FILE "13 - Boogie Woogie Blues Party.wav" WAVE
  TRACK 13 AUDIO
    TITLE "Boogie Woogie Blues Party"
    PERFORMER "Lucky Peterson"
    INDEX 01 00:00:00
FILE "14 - Johnny B. Goode - ''Encore''.wav" WAVE
  TRACK 14 AUDIO
    TITLE "Johnny B. Goode - ''Encore''"
    PERFORMER "Lucky Peterson"
    INDEX 01 00:00:00
Код:
-----------------------
DON'T MODIFY THIS FILE
-----------------------
PERFORMER: auCDtect Task Manager, ver. 1.6.0 RC1 build 1.6.0.1
Copyright (c) 2008-2010 y-soft. All rights reserved
[url=http://y-soft.org]http://y-soft.org[/url]
ANALYZER: auCDtect: CD records authenticity detector, version 0.8.2
Copyright (c) 2004 Oleg Berngardt. All rights reserved.
Copyright (c) 2004 Alexander Djourik. All rights reserved.
FILE: 14 - Johnny B. Goode - ''Encore''.flac
  Size: 44932320 Hash: 267CD234C8582D666A40D18DAA8A3821 Accuracy: -m0
  Conclusion: CDDA 100%
  Signature: E5CC8920D4085040ED0C06AA9B8117BBDB9732A7
FILE: 13 - Boogie Woogie Blues Party.flac
  Size: 33746842 Hash: 37854A65AF87E92FFBF1CD1C1144C549 Accuracy: -m0
  Conclusion: CDDA 100%
  Signature: A660D3536D96578C823A36008009F53E620DE36E
FILE: 12 - Jody's Got Your Girl And Gone.flac
  Size: 23959394 Hash: A499B6A48917D3EF4C1200A21ED83ADD Accuracy: -m0
  Conclusion: CDDA 100%
  Signature: 257FC91A6BEB475D1C18B05453DBB1A40DCCB508
FILE: 11 - Goin' Down Slow (I've Had My Fun).flac
  Size: 8310490 Hash: C9F62E7F5B847A6BF6BB432E9B5257F5 Accuracy: -m0
  Conclusion: CDDA 100%
  Signature: 3F6EF0C08410D3D409F4688AFB25AAD9D374D6D5
FILE: 10 - I'm Still Here.flac
  Size: 41936146 Hash: 04B2F146D34FC9EE55F3E57052B6DC7B Accuracy: -m0
  Conclusion: CDDA 99%
  Signature: 84FE0E89FF609FEA5E7FE2E6B19B5CFFC063F090
FILE: 09 - Nana Jarnell.flac
  Size: 41799090 Hash: 037CC836DDCE78D6C499CF41003CC94C Accuracy: -m0
  Conclusion: CDDA 100%
  Signature: 1EABC066FD72050EB715EF49E4E1736AAF1876AD
FILE: 08 - Tribute To Stevie Ray Vaughan.flac
  Size: 11860741 Hash: D8B44DE2A6D3AB407D80510E3ADA866E Accuracy: -m0
  Conclusion: CDDA 100%
  Signature: 1F0041085A16310176E2C702625CFF356C4E5078
FILE: 07 - Make My Move On You.flac
  Size: 28672632 Hash: ECAC2951D34450439ED75622325792EA Accuracy: -m0
  Conclusion: CDDA 100%
  Signature: 7BFF3EA279D583D437676B681A7ABEA4879FACD1
FILE: 06 - Lock Out Of Love.flac
  Size: 26578920 Hash: BFCBC5B9C4523F492B6EBF30F5D7DF22 Accuracy: -m0
  Conclusion: CDDA 100%
  Signature: 9F9322831FC0F91216201F7DAA769A4F1534063E
FILE: 05 - Trouble.flac
  Size: 49992953 Hash: F266EEEBADC945162FBE9348E45C0CAD Accuracy: -m0
  Conclusion: CDDA 99%
  Signature: 21B7133B174BA091A30F90C5A1F2DB8F7990F892
FILE: 04 - It Ain't Safe.flac
  Size: 48557840 Hash: E6A68B98C158EDAD34CD6CB7701EB65D Accuracy: -m0
  Conclusion: CDDA 99%
  Signature: C36A863C6B8D1668887F466B66C7C89582415C21
FILE: 03 - I Can See Clearly Now.flac
  Size: 63825269 Hash: 8CB9174B5FECA20D8B55E754A996380F Accuracy: -m0
  Conclusion: CDDA 100%
  Signature: CE89C71AD87B0140E2A2A3E0EE9C7B3446A3A8DA
FILE: 02 - Funky Broadway.flac
  Size: 29174047 Hash: 108E856C0589C629BE0721C5CFB91007 Accuracy: -m0
  Conclusion: CDDA 100%
  Signature: 65BB9618C59F7BB55264B8A726CA71CB5A2287F8
FILE: 01 - Boogie Thang.flac
  Size: 73290462 Hash: AEDB3A7C15364F76563037594E5B2712 Accuracy: -m0
  Conclusion: CDDA 100%
  Signature: 1CCA874304CD824AC0090944D6164633703A3A75
Прoдолжительность: 01:18:35
#777Страна-производитель диска: UK & Europe
Номер по каталогу: JSP Record - JSP3001
Источник (релизер): свой рип
Трeклист:
01. Is It Me (3:50)
02. Waiting On You (3:19)
03. Long Nights (5:50)
04. Be Your Man (3:11)
05. Wasting My Time (4:03)
06. Mad As A Man Can Be. (3:45)
07. Never Coming Back (3:17)
08. Repo Man (4:21)
09. Six O Clock Blues (3:34)
10. Erline (5:05)
11. Feeling They Call The Blues (4:04)
Код:
Exact Audio Copy V1.1 from 23. June 2015
EAC extraction logfile from 14. February 2020, 17:20
Lucky Peterson / Long Nights
Used drive  : HL-DT-STDVD-RAM GH22NP20   Adapter: 1  ID: 0
Read mode               : Secure
Utilize accurate stream : Yes
Defeat audio cache      : Yes
Make use of C2 pointers : No
Read offset correction                      : 102
Overread into Lead-In and Lead-Out          : No
Fill up missing offset samples with silence : Yes
Delete leading and trailing silent blocks   : No
Null samples used in CRC calculations       : Yes
Used interface                              : Native Win32 interface for Win NT & 2000
Gap handling                                : Appended to previous track
Used output format              : User Defined Encoder
Selected bitrate                : 128 kBit/s
Quality                         : High
Add ID3 tag                     : No
Command line compressor         : C:\Program Files\Exact Audio Copy\Flac\flac.exe
Additional command line options : -V -8 -T "Genre=%genre%" -T "Artist=%artist%" -T "Title=%title%" -T "Album=%albumtitle%" -T "Date=%year%" -T "Tracknumber=%tracknr%" -T "Comment=%comment%" %source%
TOC of the extracted CD
     Track |   Start  |  Length  | Start sector | End sector
    ---------------------------------------------------------
        1  |  0:00.00 |  3:50.08 |         0    |    17257
        2  |  3:50.08 |  3:19.13 |     17258    |    32195
        3  |  7:09.21 |  5:49.71 |     32196    |    58441
        4  | 12:59.17 |  3:10.57 |     58442    |    72748
        5  | 16:09.74 |  4:02.60 |     72749    |    90958
        6  | 20:12.59 |  3:45.16 |     90959    |   107849
        7  | 23:58.00 |  3:16.61 |    107850    |   122610
        8  | 27:14.61 |  4:21.30 |    122611    |   142215
        9  | 31:36.16 |  3:33.58 |    142216    |   158248
       10  | 35:09.74 |  5:04.62 |    158249    |   181110
       11  | 40:14.61 |  4:04.01 |    181111    |   199411
Track  1
     Filename D:\alexbras\2016 Lucky Peterson - Long Nights (UK JSP3001)\01 Is It Me.wav
     Pre-gap length  0:00:02.00
     Peak level 81.6 %
     Extraction speed 1.6 X
     Track quality 100.0 %
     Test CRC B820B85A
     Copy CRC B820B85A
     Accurately ripped (confidence 4)  [1C1CF835]  (AR v2)
     Copy OK
Track  2
     Filename D:\alexbras\2016 Lucky Peterson - Long Nights (UK JSP3001)\02 Waiting On You.wav
     Pre-gap length  0:00:02.00
     Peak level 81.6 %
     Extraction speed 1.5 X
     Track quality 99.9 %
     Test CRC 1FFEB588
     Copy CRC 1FFEB588
     Accurately ripped (confidence 4)  [C100BC68]  (AR v2)
     Copy OK
Track  3
     Filename D:\alexbras\2016 Lucky Peterson - Long Nights (UK JSP3001)\03 Long Nights.wav
     Pre-gap length  0:00:02.00
     Peak level 84.5 %
     Extraction speed 1.9 X
     Track quality 99.9 %
     Test CRC B5A2DBDE
     Copy CRC B5A2DBDE
     Accurately ripped (confidence 4)  [6F653762]  (AR v2)
     Copy OK
Track  4
     Filename D:\alexbras\2016 Lucky Peterson - Long Nights (UK JSP3001)\04 Be Your Man.wav
     Pre-gap length  0:00:02.00
     Peak level 81.2 %
     Extraction speed 2.1 X
     Track quality 100.0 %
     Test CRC AF372932
     Copy CRC AF372932
     Accurately ripped (confidence 4)  [4D5506B2]  (AR v2)
     Copy OK
Track  5
     Filename D:\alexbras\2016 Lucky Peterson - Long Nights (UK JSP3001)\05 Wasting My Time.wav
     Pre-gap length  0:00:02.00
     Peak level 82.1 %
     Extraction speed 2.3 X
     Track quality 100.0 %
     Test CRC 69CD2D8D
     Copy CRC 69CD2D8D
     Accurately ripped (confidence 4)  [0D21230E]  (AR v2)
     Copy OK
Track  6
     Filename D:\alexbras\2016 Lucky Peterson - Long Nights (UK JSP3001)\06 Mad As A Man Can Be..wav
     Pre-gap length  0:00:02.00
     Peak level 81.2 %
     Extraction speed 2.4 X
     Track quality 100.0 %
     Test CRC 63D06C53
     Copy CRC 63D06C53
     Accurately ripped (confidence 4)  [57D12B74]  (AR v2)
     Copy OK
Track  7
     Filename D:\alexbras\2016 Lucky Peterson - Long Nights (UK JSP3001)\07 Never Coming Back.wav
     Pre-gap length  0:00:02.00
     Peak level 80.7 %
     Extraction speed 2.4 X
     Track quality 100.0 %
     Test CRC D9357E67
     Copy CRC D9357E67
     Accurately ripped (confidence 4)  [C3062584]  (AR v2)
     Copy OK
Track  8
     Filename D:\alexbras\2016 Lucky Peterson - Long Nights (UK JSP3001)\08 Repo Man.wav
     Pre-gap length  0:00:02.00
     Peak level 80.0 %
     Extraction speed 2.6 X
     Track quality 100.0 %
     Test CRC 61EA6964
     Copy CRC 61EA6964
     Accurately ripped (confidence 4)  [A235C277]  (AR v2)
     Copy OK
Track  9
     Filename D:\alexbras\2016 Lucky Peterson - Long Nights (UK JSP3001)\09 Six O Clock Blues.wav
     Pre-gap length  0:00:02.00
     Peak level 64.5 %
     Extraction speed 2.2 X
     Track quality 99.9 %
     Test CRC 5BE454D1
     Copy CRC 5BE454D1
     Accurately ripped (confidence 4)  [73B4DABD]  (AR v2)
     Copy OK
Track 10
     Filename D:\alexbras\2016 Lucky Peterson - Long Nights (UK JSP3001)\10 Erline.wav
     Pre-gap length  0:00:02.00
     Peak level 77.6 %
     Extraction speed 2.9 X
     Track quality 100.0 %
     Test CRC 12C52014
     Copy CRC 12C52014
     Accurately ripped (confidence 4)  [993718DE]  (AR v2)
     Copy OK
Track 11
     Filename D:\alexbras\2016 Lucky Peterson - Long Nights (UK JSP3001)\11 Feeling They Call The Blues.wav
     Pre-gap length  0:00:02.00
     Peak level 83.9 %
     Extraction speed 2.6 X
     Track quality 99.9 %
     Test CRC ADBB631B
     Copy CRC ADBB631B
     Accurately ripped (confidence 4)  [E2DBC8CF]  (AR v2)
     Copy OK
All tracks accurately ripped
No errors occurred
End of status report
==== Log checksum BCFBD80D02146208097D4D242E25CA8F4136C9C7C37F05CE461732D285C6145B ====
Код:
REM GENRE Blues
REM DATE 2016
REM DISCID 7F0A620B
REM COMMENT "ExactAudioCopy v1.1"
PERFORMER "Lucky Peterson"
TITLE "Long Nights"
FILE "01 Is It Me.wav" WAVE
  TRACK 01 AUDIO
    TITLE "Is It Me"
    PERFORMER "Lucky Peterson"
    ISRC GBAJD1630101
    INDEX 01 00:00:00
  TRACK 02 AUDIO
    TITLE "Waiting On You"
    PERFORMER "Lucky Peterson"
    ISRC GBAJD1630102
    INDEX 00 03:48:08
FILE "02 Waiting On You.wav" WAVE
    INDEX 01 00:00:00
  TRACK 03 AUDIO
    TITLE "Long Nights"
    PERFORMER "Lucky Peterson"
    ISRC GBAJD1630103
    INDEX 00 03:17:13
FILE "03 Long Nights.wav" WAVE
    INDEX 01 00:00:00
  TRACK 04 AUDIO
    TITLE "Be Your Man"
    PERFORMER "Lucky Peterson"
    ISRC GBAJD1630104
    INDEX 00 05:47:71
FILE "04 Be Your Man.wav" WAVE
    INDEX 01 00:00:00
  TRACK 05 AUDIO
    TITLE "Wasting My Time"
    PERFORMER "Lucky Peterson"
    ISRC GBAJD1630105
    INDEX 00 03:08:57
FILE "05 Wasting My Time.wav" WAVE
    INDEX 01 00:00:00
  TRACK 06 AUDIO
    TITLE "Mad As A Man Can Be."
    PERFORMER "Lucky Peterson"
    ISRC GBAJD1630106
    INDEX 00 04:00:60
FILE "06 Mad As A Man Can Be..wav" WAVE
    INDEX 01 00:00:00
  TRACK 07 AUDIO
    TITLE "Never Coming Back"
    PERFORMER "Lucky Peterson"
    ISRC GBAJD1630107
    INDEX 00 03:43:16
FILE "07 Never Coming Back.wav" WAVE
    INDEX 01 00:00:00
  TRACK 08 AUDIO
    TITLE "Repo Man"
    PERFORMER "Lucky Peterson"
    ISRC GBAJD1630108
    INDEX 00 03:14:61
FILE "08 Repo Man.wav" WAVE
    INDEX 01 00:00:00
  TRACK 09 AUDIO
    TITLE "Six O Clock Blues"
    PERFORMER "Lucky Peterson"
    ISRC GBAJD1630109
    INDEX 00 04:19:30
FILE "09 Six O Clock Blues.wav" WAVE
    INDEX 01 00:00:00
  TRACK 10 AUDIO
    TITLE "Erline"
    PERFORMER "Lucky Peterson"
    ISRC GBAJD1630110
    INDEX 00 03:31:58
FILE "10 Erline.wav" WAVE
    INDEX 01 00:00:00
  TRACK 11 AUDIO
    TITLE "Feeling They Call The Blues"
    PERFORMER "Lucky Peterson"
    ISRC GBAJD1630111
    INDEX 00 05:02:62
FILE "11 Feeling They Call The Blues.wav" WAVE
    INDEX 01 00:00:00
Код:
-----------------------
DON'T MODIFY THIS FILE
-----------------------
PERFORMER: auCDtect Task Manager, ver. 1.6.0 RC1 build 1.6.0.1
Copyright (c) 2008-2010 y-soft. All rights reserved
[url=http://y-soft.org]http://y-soft.org[/url]
ANALYZER: auCDtect: CD records authenticity detector, version 0.8.2
Copyright (c) 2004 Oleg Berngardt. All rights reserved.
Copyright (c) 2004 Alexander Djourik. All rights reserved.
FILE: 11 Feeling They Call The Blues.flac
  Size: 25196822 Hash: B49E1E497B3E7F1FCFF701333A78EBF0 Accuracy: -m0
  Conclusion: CDDA 100%
  Signature: BD6E57E1DC8E2D82767B5F1E61BC039488AA6234
FILE: 10 Erline.flac
  Size: 26697038 Hash: 1ADF22EEEB83DB2C007D72B9FC8AFEA1 Accuracy: -m0
  Conclusion: CDDA 100%
  Signature: 3ADE577909D62B27DDFE15168D3526A110E9DDD1
FILE: 09 Six O Clock Blues.flac
  Size: 15434103 Hash: B1314DD0C53BA505D1FCCF60CEA3B090 Accuracy: -m0
  Conclusion: CDDA 100%
  Signature: FFE85190E181E58D38162CFF78FDAD494E992092
FILE: 08 Repo Man.flac
  Size: 21901423 Hash: 72367CF7CEF10302263CF3DB59FE0079 Accuracy: -m0
  Conclusion: CDDA 100%
  Signature: 1C95B6D42884B135D9F0264A7CD2F3725B932F9C
FILE: 07 Never Coming Back.flac
  Size: 22164855 Hash: 2AE6D62E3A2241C54A346B983165A676 Accuracy: -m0
  Conclusion: CDDA 100%
  Signature: 06DD7058B70C8491D6F20FE2859D9372FACB8D7D
FILE: 06 Mad As A Man Can Be..flac
  Size: 27328284 Hash: 8052A46C7F7C5D3960C9A274478060CB Accuracy: -m0
  Conclusion: CDDA 100%
  Signature: D161A1DE2464055AB45DD9376F31E4D4670D4A2F
FILE: 05 Wasting My Time.flac
  Size: 28780223 Hash: 6508BE6A31F36AE8EF3BB6357FCBB8EB Accuracy: -m0
  Conclusion: CDDA 100%
  Signature: 48BD399F857713E8818EA053545FDCEE7BA9DE71
FILE: 04 Be Your Man.flac
  Size: 16814113 Hash: FD830328E804B3A2D5DE3D7EA6EB189F Accuracy: -m0
  Conclusion: CDDA 100%
  Signature: 0409C436210461033D99A5012BF2D17664DC3372
FILE: 03 Long Nights.flac
  Size: 39331725 Hash: ECDAA1083F7230960F1538812082B68F Accuracy: -m0
  Conclusion: CDDA 100%
  Signature: B131AE393E048855E918B8513CAE138ADC0B93F8
FILE: 02 Waiting On You.flac
  Size: 23571167 Hash: 66EB9040B7F49473E8998746EF4969D0 Accuracy: -m0
  Conclusion: CDDA 100%
  Signature: C128A6D41C2A06E7CBD11A869F21DD5F3D14B1C1
FILE: 01 Is It Me.flac
  Size: 27988746 Hash: 39098F0536A6F96BAB38B0D761A48643 Accuracy: -m0
  Conclusion: CDDA 100%
  Signature: 9DDF2CFCD67417E75B81D01AD6AC982B85D13DF8
Прoдолжительность: 00:44:19
Lucky Peterson lossless
Правила, инструкции, FAQ!!!
Торрент  Добавлен [29 мар 2020, 20:05] Скачать торрент Магнет ссылка
Скачать торрент
[ Размер 31.43 КБ / Просмотров 3 ]

Статус
Проверен 
 
Размер  2.66 ГБ
Приватный: Нет (DHT включён)
.torrent скачан  0
 


     Отправить личное сообщение
   
Страница 1 из 1
Показать сообщения за:  Поле сортировки  
Начать новую тему Ответить на тему


Сейчас этот форум просматривают: нет зарегистрированных пользователей и гости: 0


Вы не можете начинать темы
Вы не можете отвечать на сообщения
Вы не можете редактировать свои сообщения
Вы не можете удалять свои сообщения
Вы не можете добавлять вложения

Перейти:  
cron