Начать новую тему Ответить на тему
Статистика раздачи
Размер: 296.25 МБ | Добавлен: 26 апр 2020, 21:09 | Скачали: 1
Сидеров: 0  [0 байт/сек]    Личеров: 0  [0 байт/сек]
Пред. тема | След. тема 

Автор
Сообщение

СообщениеДобавлено: 26 апр 2020, 21:09 

Ответить с цитатой 

Madjo / Trapdoor
Жанр: Pop, Funk/Soul, Chanson
Носитель: CD
Страна-производитель диска (релиза): E.U.
Год издания: 2010
Издатель (лейбл): Green United Music/Casablanca/Mercury
Номер по каталогу: 274899-1
Страна исполнителя (группы): France
Аудиокодек: FLAC (*.flac)
Тип рипа: image+.cue
Продолжительность: 00:44:39
Источник: собственный рип
Наличие сканов в содержимом раздачи: да
Треклист:
01. Leaving My Heart
02. Le nid des 100 soucis
03. Heading For Trouble
04. Mad Mind
05. Je claque des doigts
06. Another Day
07. Le coeur hibou
08. Trapdoor In a Wall
09. Catch the Bird
10. Cracheur de feu
11. Lion Monkey Husband
12. Insomnia
Код:
Exact Audio Copy V1.5 from 20. February 2020
EAC extraction logfile from 22. April 2020, 9:07
Madjo / Trapdoor
Used drive  : ASUS    BW-16D1H-U   Adapter: 1  ID: 0
Read mode               : Secure
Utilize accurate stream : Yes
Defeat audio cache      : Yes
Make use of C2 pointers : No
Read offset correction                      : 6
Overread into Lead-In and Lead-Out          : No
Fill up missing offset samples with silence : Yes
Delete leading and trailing silent blocks   : No
Null samples used in CRC calculations       : Yes
Used interface                              : Native Win32 interface for Win NT & 2000
Used output format              : User Defined Encoder
Selected bitrate                : 768 kBit/s
Quality                         : High
Add ID3 tag                     : No
Command line compressor         : C:\Program Files (x86)\Exact Audio Copy\FLAC\FLAC.EXE
Additional command line options : -8 -V -T "TITLE=%title%" -T "ARTIST=%artist%" -T "ALBUMARTIST=%albumartist%" -T "ALBUM=%albumtitle%" -T "DATE=%year%" -T "TRACKNUMBER=%tracknr%" -T "TRACKTOTAL=%numtracks%" -T "GENRE=%genre%" -T "COMMENT=%comment%" -T "PERFORMER=%albuminterpret%" -T "COMPOSER=%composer%" %source% -o %dest%
TOC of the extracted CD
     Track |   Start  |  Length  | Start sector | End sector
    ---------------------------------------------------------
        1  |  0:00.00 |  3:38.12 |         0    |    16361
        2  |  3:38.12 |  2:56.18 |     16362    |    29579
        3  |  6:34.30 |  3:08.27 |     29580    |    43706
        4  |  9:42.57 |  4:41.45 |     43707    |    64826
        5  | 14:24.27 |  3:48.17 |     64827    |    81943
        6  | 18:12.44 |  3:58.31 |     81944    |    99824
        7  | 22:11.00 |  4:56.26 |     99825    |   122050
        8  | 27:07.26 |  2:48.66 |    122051    |   134716
        9  | 29:56.17 |  3:33.39 |    134717    |   150730
       10  | 33:29.56 |  3:36.47 |    150731    |   166977
       11  | 37:06.28 |  3:55.60 |    166978    |   184662
       12  | 41:02.13 |  3:37.24 |    184663    |   200961
Range status and errors
Selected range
     Filename H:\Madjo - Trapdoor (2010)\Madjo - Trapdoor.wav
     Peak level 99.8 %
     Extraction speed 6.9 X
     Range quality 100.0 %
     Test CRC 640079D2
     Copy CRC 640079D2
     Copy OK
No errors occurred
AccurateRip summary
Track  1  accurately ripped (confidence 7)  [3A9DD1D8]  (AR v2)
Track  2  accurately ripped (confidence 6)  [F781C794]  (AR v2)
Track  3  accurately ripped (confidence 6)  [5E3643C8]  (AR v2)
Track  4  accurately ripped (confidence 6)  [F8DAECAE]  (AR v2)
Track  5  accurately ripped (confidence 6)  [23DEC9A1]  (AR v2)
Track  6  accurately ripped (confidence 6)  [2A494070]  (AR v2)
Track  7  accurately ripped (confidence 6)  [C9B816E7]  (AR v2)
Track  8  accurately ripped (confidence 6)  [24144D7C]  (AR v2)
Track  9  accurately ripped (confidence 6)  [26E7B548]  (AR v2)
Track 10  accurately ripped (confidence 6)  [27A12BA1]  (AR v2)
Track 11  accurately ripped (confidence 6)  [CE1141BE]  (AR v2)
Track 12  accurately ripped (confidence 6)  [1421D533]  (AR v2)
All tracks accurately ripped
End of status report
---- CUETools DB Plugin V2.1.6
[CTDB TOCID: E3hQeBGmot3nxt4Ek9mAjDpQ1Fs-] found
Submit result: E3hQeBGmot3nxt4Ek9mAjDpQ1Fs- has been confirmed
Track | CTDB Status
  1   | (12/12) Accurately ripped
  2   | (12/12) Accurately ripped
  3   | (12/12) Accurately ripped
  4   | (12/12) Accurately ripped
  5   | (12/12) Accurately ripped
  6   | (12/12) Accurately ripped
  7   | (12/12) Accurately ripped
  8   | (12/12) Accurately ripped
  9   | (12/12) Accurately ripped
 10   | (12/12) Accurately ripped
 11   | (12/12) Accurately ripped
 12   | (12/12) Accurately ripped
==== Log checksum 18559EDAF8EDFB5A05B53E812386FB1F8B9540FAB5B71428F698AB26BA750995 ====
Код:
REM DATE 2010
REM DISCID A20A770C
REM COMMENT "ExactAudioCopy v1.5"
PERFORMER "Madjo"
TITLE "Trapdoor"
REM COMPOSER ""
FILE "Madjo - Trapdoor.flac" WAVE
  TRACK 01 AUDIO
    TITLE "Leaving My Heart"
    PERFORMER "Madjo"
    REM COMPOSER ""
    INDEX 01 00:00:00
  TRACK 02 AUDIO
    TITLE "Le nid des 100 soucis"
    PERFORMER "Madjo"
    REM COMPOSER ""
    INDEX 01 03:38:12
  TRACK 03 AUDIO
    TITLE "Heading For Trouble"
    PERFORMER "Madjo"
    REM COMPOSER ""
    INDEX 01 06:34:30
  TRACK 04 AUDIO
    TITLE "Mad Mind"
    PERFORMER "Madjo"
    REM COMPOSER ""
    INDEX 01 09:42:57
  TRACK 05 AUDIO
    TITLE "Je claque des doigts"
    PERFORMER "Madjo"
    REM COMPOSER ""
    INDEX 00 14:22:17
    INDEX 01 14:24:27
  TRACK 06 AUDIO
    TITLE "Another Day"
    PERFORMER "Madjo"
    REM COMPOSER ""
    INDEX 01 18:12:44
  TRACK 07 AUDIO
    TITLE "Le coeur hibou"
    PERFORMER "Madjo"
    REM COMPOSER ""
    INDEX 01 22:11:00
  TRACK 08 AUDIO
    TITLE "Trapdoor In a Wall"
    PERFORMER "Madjo"
    REM COMPOSER ""
    INDEX 01 27:07:26
  TRACK 09 AUDIO
    TITLE "Catch the Bird"
    PERFORMER "Madjo"
    REM COMPOSER ""
    INDEX 01 29:56:17
  TRACK 10 AUDIO
    TITLE "Cracheur de feu"
    PERFORMER "Madjo"
    REM COMPOSER ""
    INDEX 01 33:29:56
  TRACK 11 AUDIO
    TITLE "Lion Monkey Husband"
    PERFORMER "Madjo"
    REM COMPOSER ""
    INDEX 01 37:06:28
  TRACK 12 AUDIO
    TITLE "Insomnia"
    PERFORMER "Madjo"
    REM COMPOSER ""
    INDEX 00 41:00:20
    INDEX 01 41:02:13
Правила, инструкции, FAQ!!!
Торрент  Добавлен [26 апр 2020, 21:09] Скачать торрент Магнет ссылка
Скачать торрент
[ Размер 24.58 КБ / Просмотров 4 ]

Статус
Проверен 
 
Размер  296.25 МБ
Приватный: Нет (DHT включён)
.torrent скачан  1
 


     Отправить личное сообщение
   
Страница 1 из 1
Показать сообщения за:  Поле сортировки  
Начать новую тему Ответить на тему


Сейчас этот форум просматривают: нет зарегистрированных пользователей и гости: 0


Вы не можете начинать темы
Вы не можете отвечать на сообщения
Вы не можете редактировать свои сообщения
Вы не можете удалять свои сообщения
Вы не можете добавлять вложения

Перейти:  
cron