Начать новую тему Ответить на тему
Статистика раздачи
Размер: 395.67 МБ | Добавлен: 05 апр 2020, 18:25 | Скачали: 0
Сидеров: 1  [0 байт/сек]    Личеров: 0  [0 байт/сек]
Пред. тема | След. тема 

Автор
Сообщение

СообщениеДобавлено: 05 апр 2020, 18:25 

Ответить с цитатой 

Secret Alliance / Solar Warden
Жанр: Progressive Hard Rock
Носитель: CD
Год издания: 2020
Издатель (лейбл): Punishment 18 Records
Страна исполнителя : Italy
Аудиокодек: FLAC (*.flac)
Тип рипа: image+.cue
Продолжительность: 00:52:33
Источник: Hard
Наличие сканов : да
Треклист:
01. We're All In (4:47)
02. The Contdown (4:24)
03. Walking Man (4:46)
04. Last Day (4:40)
05. The Wardens (4:40)
06. Jaily Miracle (4:55)
07. No Faith (4:05)
08. Comet Smile (4:56)
09. A New Tomorrow (4:30)
10. Superheroes (4:47)
11. Dark Side (3:13)
12. Abum D’bashmayo (2:38)
Код:
Exact Audio Copy V1.1 from 23. June 2015
EAC extraction logfile from 15. March 2020, 10:33
Secret Alliance / Solar Warden (P18R 160)
Used drive  : PIONEER BD-RW   BDR-209D   Adapter: 0  ID: 5
Read mode               : Secure
Utilize accurate stream : Yes
Defeat audio cache      : Yes
Make use of C2 pointers : No
Read offset correction                      : 667
Overread into Lead-In and Lead-Out          : No
Fill up missing offset samples with silence : Yes
Delete leading and trailing silent blocks   : No
Null samples used in CRC calculations       : Yes
Used interface                              : Installed external ASPI interface
Used output format              : User Defined Encoder
Selected bitrate                : 768 kBit/s
Quality                         : High
Add ID3 tag                     : No
Command line compressor         : C:\Program Files (x86)\Exact Audio Copy\FLAC\FLAC.EXE
Additional command line options : -6 -V -T "ARTIST=%artist%" -T "TITLE=%title%" -T "ALBUM=%albumtitle%" -T "DATE=%year%" -T "TRACKNUMBER=%tracknr%" -T "GENRE=%genre%" -T "COMMENT=%comment%" -T "BAND=%albuminterpret%" -T "ALBUMARTIST=%albuminterpret%" -T "COMPOSER=%composer%" %haslyrics%--tag-from-file=LYRICS="%lyricsfile%"%haslyrics% -T "DISCNUMBER=%cdnumber%" -T "TOTALDISCS=%totalcds%" -T "TOTALTRACKS=%numtracks%" %hascover%--picture="%coverfile%"%hascover% %source% -o %dest%
TOC of the extracted CD
     Track |   Start  |  Length  | Start sector | End sector
    ---------------------------------------------------------
        1  |  0:00.00 |  4:47.29 |         0    |    21553
        2  |  4:47.29 |  4:23.60 |     21554    |    41338
        3  |  9:11.14 |  4:45.71 |     41339    |    62784
        4  | 13:57.10 |  4:39.51 |     62785    |    83760
        5  | 18:36.61 |  4:40.24 |     83761    |   104784
        6  | 23:17.10 |  4:55.28 |    104785    |   126937
        7  | 28:12.38 |  4:05.32 |    126938    |   145344
        8  | 32:17.70 |  4:55.62 |    145345    |   167531
        9  | 37:13.57 |  4:29.62 |    167532    |   187768
       10  | 41:43.44 |  4:47.37 |    187769    |   209330
       11  | 46:31.06 |  3:13.36 |    209331    |   223841
       12  | 49:44.42 |  2:37.53 |    223842    |   235669
Range status and errors
Selected range
     Filename E:\MUSIC\Secret Alliance - Solar Warden (P18R 160).wav
     Peak level 98.8 %
     Extraction speed 7.8 X
     Range quality 100.0 %
     Test CRC 0471E321
     Copy CRC 0471E321
     Copy OK
No errors occurred
AccurateRip summary
Track  1  not present in database
Track  2  not present in database
Track  3  not present in database
Track  4  not present in database
Track  5  not present in database
Track  6  not present in database
Track  7  not present in database
Track  8  not present in database
Track  9  not present in database
Track 10  not present in database
Track 11  not present in database
Track 12  not present in database
None of the tracks are present in the AccurateRip database
End of status report
==== Log checksum 7B60F0E07F3123B79FA73AFA59D009CE9747564A14B6C7B33184F02A23EE0706 ====
Код:
REM GENRE "Heavy Metal"
REM DATE 2020
REM DISCID C70C460C
REM COMMENT "ExactAudioCopy v1.1"
PERFORMER "Secret Alliance"
TITLE "Solar Warden (P18R 160)"
FILE "Secret Alliance - Solar Warden (P18R 160).flac" WAVE
  TRACK 01 AUDIO
    TITLE "We're All In"
    PERFORMER "Secret Alliance"
    INDEX 01 00:00:00
  TRACK 02 AUDIO
    TITLE "The Contdown"
    PERFORMER "Secret Alliance"
    INDEX 01 04:47:29
  TRACK 03 AUDIO
    TITLE "Walking Man"
    PERFORMER "Secret Alliance"
    INDEX 01 09:11:14
  TRACK 04 AUDIO
    TITLE "Last Day"
    PERFORMER "Secret Alliance"
    INDEX 01 13:57:10
  TRACK 05 AUDIO
    TITLE "The Wardens"
    PERFORMER "Secret Alliance"
    INDEX 01 18:36:61
  TRACK 06 AUDIO
    TITLE "Jaily Miracle"
    PERFORMER "Secret Alliance"
    INDEX 01 23:17:10
  TRACK 07 AUDIO
    TITLE "No Faith"
    PERFORMER "Secret Alliance"
    INDEX 01 28:12:38
  TRACK 08 AUDIO
    TITLE "Comet Smile"
    PERFORMER "Secret Alliance"
    INDEX 01 32:17:70
  TRACK 09 AUDIO
    TITLE "A New Tomorrow"
    PERFORMER "Secret Alliance"
    INDEX 01 37:13:57
  TRACK 10 AUDIO
    TITLE "Superheroes"
    PERFORMER "Secret Alliance"
    INDEX 01 41:43:44
  TRACK 11 AUDIO
    TITLE "Dark Side"
    PERFORMER "Secret Alliance"
    INDEX 01 46:31:06
  TRACK 12 AUDIO
    TITLE "Abum D’bashmayo"
    PERFORMER "Secret Alliance"
    INDEX 01 49:44:42
Правила, инструкции, FAQ!!!
Торрент  Добавлен [05 апр 2020, 18:25] Скачать торрент Магнет ссылка
Скачать торрент
[ Размер 16.66 КБ / Просмотров 3 ]

Статус
Проверен 
 
Размер  395.67 МБ
Приватный: Нет (DHT включён)
.torrent скачан  0
 


     Отправить личное сообщение
   
Страница 1 из 1
Показать сообщения за:  Поле сортировки  
Начать новую тему Ответить на тему


Сейчас этот форум просматривают: нет зарегистрированных пользователей и гости: 0


Вы не можете начинать темы
Вы не можете отвечать на сообщения
Вы не можете редактировать свои сообщения
Вы не можете удалять свои сообщения
Вы не можете добавлять вложения

Перейти:  
cron