Начать новую тему Ответить на тему
Статистика раздачи
Размер: 299.83 МБ | Добавлен: 19 май 2020, 14:36 | Скачали: 0
Сидеров: 0  [0 байт/сек]    Личеров: 0  [0 байт/сек]
Пред. тема | След. тема 

Автор
Сообщение

СообщениеДобавлено: 19 май 2020, 14:36 

Ответить с цитатой 

Spiritczualic Enhancement Center
"Me and My Students Have Reached Higher Levels"
— 2019

__________________________________________
.
SPIRITCZUALIC ENHANCEMENT CENTER (formed): 2017 • Earth
ЖАНРЫ: Psychedelic Rock | Jam Band | Krautrock
ИЗДАТЕЛЬ АЛЬБОМА: Akuphone (France)
НОМЕР ПО КАТАЛОГУ: AKU 1020
ИСТОЧНИК: # сомнительный
ФОРМАТ: WEB | Album
КОДЕК: FLAC (*.flac)
ТИП РИПА: tracks
БИТРЕЙТ: lossless
.
track listing
01. He Finally Heared It (06:18)
02. After He Heared It (01:35)
03. 3000 Chirping Crickets (04:34)
04. Me and My Students Have Reached Higher Levels (13:28)
05. Copyshop (Round the Corner) (07:18)
06. Away on Business (04:41)
07. Japanese Bonus Track 1 (09:45)
08. Japanese Bonus Track 2 (08:40)
total length (00:56:15)

Код:
[b][color=#0f0f0f]-----------------------
[/color]DON'T MODIFY THIS FILE
[/b]-----------------------
PERFORMER: auCDtect Task Manager, ver. 1.6.0 RC1 build 1.6.0.1
Copyright (c) 2008-2010 y-soft. All rights reserved
ANALYZER: auCDtect: CD records authenticity detector, version 0.8.2
Copyright (c) 2004 Oleg Berngardt. All rights reserved.
Copyright (c) 2004 Alexander Djourik. All rights reserved.
FILE: 08. Japanese Bonus Track 2.flac
  Size: 40993159 Hash: FAD9A339138682355CB03BCC557C38EC Accuracy: -m0
  Conclusion: CDDA 87%
  Signature: 1AF9BD06C0BEC7C2370340027AEA9DB8A7686516
FILE: 07. Japanese Bonus Track 1.flac
  Size: 46040205 Hash: 825229FCCB90CCAEDEB1E3BF72E31E16 Accuracy: -m0
  Conclusion: CDDA 76%
  Signature: F7CBF6E93FCFD5A5D8A352B3D38FCB94807AC81F
FILE: 06. Away on Business.flac
  Size: 26822085 Hash: C9D6F2BA829DF8C187CDFBDDE49E1532 Accuracy: -m0
  Conclusion: CDDA 100%
  Signature: 353FF0EEB9BF7A8A11C9448F2BC6B97CDA1EB937
FILE: 05. Copyshop (Round the Corner).flac
  Size: 39334672 Hash: CBCEDE6FA2BF32798B5905E425FB1B8D Accuracy: -m0
  Conclusion: CDDA 100%
  Signature: A9D93D611F5577B1E1C02943C8609A0A8D40EFCC
FILE: 04. Me and My Students Have Reached Higher Levels.flac
  Size: 75485910 Hash: 2CE81DA1B8DE453A706A410C3CB6BA2C Accuracy: -m0
  Conclusion: CDDA 100%
  Signature: 60F59A412455FD05660E93FDB6DDB08FE63B9F96
FILE: 03. 3000 Chirping Crickets.flac
  Size: 24745339 Hash: 1885D6220828FE8552DE97F7A47BF14A Accuracy: -m0
  Conclusion: CDDA 100%
  Signature: C5D0A76CC882E5166B9201FEAA49D9DCA8DFC729
FILE: 02. After He Heared It.flac
  Size: 9607785 Hash: C6DDEDC50675C6BCE6D4F58EC64E393E Accuracy: -m0
  Conclusion: CDDA 100%
  Signature: A799467F285D4002C386D8C9E31460B6266888F4
FILE: 01. He Finally Heared It.flac
  Size: 40906916 Hash: 3AF92BFB7BC555D6350C5DA33BD9E9E3 Accuracy: -m0
  Conclusion: CDDA 100%
  Signature: 323CEA4CB726A2425ADCBAED80B4781302A10BF3
Код:
[b][color=#0f0f0f]foobar2000 1.3.9 / Dynamic Range Meter 1.1.1
log date: 2020-05-17 12:21:24
[/color]--------------------------------------------------------------------------------
Analyzed: Spiritczualic Enhancement Center / Me and My Students Have Reached Higher Levels
--------------------------------------------------------------------------------
[/b]DR         Peak         RMS     Duration Track
--------------------------------------------------------------------------------
DR13      -0.01 dB   -15.37 dB      6:17 01-He Finally Heared It
DR11      -0.63 dB   -16.19 dB      1:34 02-After He Heared It
DR11      -1.48 dB   -15.87 dB      4:34 03-3000 Chirping Crickets
DR14       0.00 dB   -16.72 dB     13:28 04-Me and My Students Have Reached Higher Levels
DR12      -0.45 dB   -15.11 dB      7:17 05-Copyshop (Round the Corner)
DR13       0.00 dB   -15.43 dB      4:41 06-Away on Business
DR14      -0.23 dB   -16.69 dB      9:45 07-Japanese Bonus Track 1
DR12      -0.30 dB   -14.20 dB      8:39 08-Japanese Bonus Track 2
--------------------------------------------------------------------------------
Number of tracks:  8
Official DR value: DR13
Samplerate:        44100 Hz
Channels:          2
Bits per sample:   16
Bitrate:           628 kbps
Codec:             FLAC
================================================================================
Правила, инструкции, FAQ!!!
Торрент  Добавлен [19 май 2020, 14:36] Скачать торрент Магнет ссылка
Скачать торрент
[ Размер 12.87 КБ / Просмотров 2 ]

Статус
Проверен 
 
Размер  299.83 МБ
Приватный: Нет (DHT включён)
.torrent скачан  0
 


     Отправить личное сообщение
   
Страница 1 из 1
Показать сообщения за:  Поле сортировки  
Начать новую тему Ответить на тему


Сейчас этот форум просматривают: нет зарегистрированных пользователей и гости: 0


Вы не можете начинать темы
Вы не можете отвечать на сообщения
Вы не можете редактировать свои сообщения
Вы не можете удалять свои сообщения
Вы не можете добавлять вложения

Перейти:  
cron