Начать новую тему Ответить на тему
Статистика раздачи
Размер: 11.97 ГБ | Добавлен: 18 апр 2020, 10:52 | Скачали: 0
Сидеров: 3  [0 байт/сек]    Личеров: 1  [0 байт/сек]
Пред. тема | След. тема 

Автор
Сообщение

СообщениеДобавлено: 18 апр 2020, 10:52 

Ответить с цитатой 

Ryuichi Sakamoto: Coda
Жанр: Documentary, Electronic
Режиссер: Стивен Номура Шибле / Stephen Nomura Schible
Продолжительность: 01:41:02
Год выпуска: 2017
Описание:
Артист за работой и дома.
Рюити Сакамото – великий японский композитор, помимо прочего, известный киносаундтреками (среди которых «Последний император», The Last Emperor, 1987; «Выживший», The Revenant, 2015; и участник этого фестиваля «Гнев», Ikari, 2016) и ролью зловещего офицера-садиста в шедевре Нагисы Осимы «Счастливого рождества, мистер Лоуренс!» (Merry Christmas Mr. Lawrence, 1982), где герой Сакамото истязал героя Дэвида Боуи). Сакамото только что записал грандиозный альбом ‘async’ – настоящий современный эпос, работу планетарного масштаба. Но в документальном фильме-портрете «Кода» гений Сакамото предстает обычным человеком со своими болями и тревогами (он только что поборол рак). Сакамото дружелюбно приглашает нас стать своими гостями, приоткрывая двери в творческую лабораторию и частную жизнь...
Доверительный, вкрадчивый, музыкальный очерк о титане с человеческим лицом – образец интимной документалистики. В дополнение к «Коде» Стивен Номура Шибле выпустил фильм-концерт, показанный на Берлинском фестивале 2018-го – ‘Async at the Park Avenue Armory’, где запечатлел камерное исполнение музыкального материала альбома ‘async’ в Оружейной палате в Нью-Йорке. Там священнодействию Сакамото над инструментами внимали десятки избранных слушателей; в «Коде» таким завораживающим ритуалом становится каждодневное существование Сакамото. -- Вадим Рутковский
Качество: BDRip
Разрешение видео/развертка: 1080p
Контейнер: MKV
Видео кодек: H.264
Аудио кодек: DTS
Видео: AVC, 1920x1080, 15500 Kbps, 23.976 fps
Аудио: DTS, 1510 Kbps, 48 kHz, 6 ch
Субтитры: русские (благодарности - crazy8), английские на японскую речь
Код:
General
Unique ID                                : 227727942485716155182346001957354759900 (0xAB52CE6DA78758546B7E7E088FB066DC)
Complete name                            : C:\Ryuichi.Sakamoto.-.Coda.2017.1080p.Bluray.DTS.5.1.x264-SaL.mkv
Format                                   : Matroska
Format version                           : Version 4
File size                                : 12.0 GiB
Duration                                 : 1 h 41 min
Overall bit rate                         : 17.0 Mb/s
Encoded date                             : UTC 2020-04-04 18:35:27
Writing application                      : mkvmerge v45.0.0 ('Heaven in Pennies') 64-bit
Writing library                          : libebml v1.3.10 + libmatroska v1.5.2
Video
ID                                       : 1
Format                                   : AVC
Format/Info                              : Advanced Video Codec
Format profile                           : High@L4.1
Format settings                          : CABAC / 4 Ref Frames
Format settings, CABAC                   : Yes
Format settings, Reference frames        : 4 frames
Codec ID                                 : V_MPEG4/ISO/AVC
Duration                                 : 1 h 41 min
Bit rate                                 : 15.5 Mb/s
Width                                    : 1 920 pixels
Height                                   : 1 080 pixels
Display aspect ratio                     : 16:9
Frame rate mode                          : Constant
Frame rate                               : 23.976 (24000/1001) FPS
Color space                              : YUV
Chroma subsampling                       : 4:2:0
Bit depth                                : 8 bits
Scan type                                : Progressive
Bits/(Pixel*Frame)                       : 0.311
Stream size                              : 10.9 GiB (91%)
Writing library                          : x264 core 157 r2932 303c484
Encoding settings                        : cabac=1 / ref=4 / deblock=1:-3:-3 / analyse=0x3:0x133 / me=umh / subme=10 / psy=1 / psy_rd=1.00:0.00 / mixed_ref=1 / me_range=32 / chroma_me=1 / trellis=2 / 8x8dct=1 / cqm=0 / deadzone=21,11 / fast_pskip=0 / chroma_qp_offset=-2 / threads=6 / lookahead_threads=1 / sliced_threads=0 / nr=0 / decimate=0 / interlaced=0 / bluray_compat=0 / constrained_intra=0 / bframes=10 / b_pyramid=2 / b_adapt=2 / b_bias=0 / direct=3 / weightb=1 / open_gop=0 / weightp=2 / keyint=250 / keyint_min=23 / scenecut=40 / intra_refresh=0 / rc_lookahead=60 / rc=crf / mbtree=0 / crf=17.8 / qcomp=0.80 / qpmin=0 / qpmax=69 / qpstep=4 / vbv_maxrate=62500 / vbv_bufsize=78125 / crf_max=0.0 / nal_hrd=none / filler=0 / ip_ratio=1.40 / pb_ratio=1.30 / aq=2:0.85
Default                                  : Yes
Forced                                   : No
Color range                              : Limited
Color primaries                          : BT.709
Matrix coefficients                      : BT.709
Audio
ID                                       : 2
Format                                   : DTS
Format/Info                              : Digital Theater Systems
Codec ID                                 : A_DTS
Duration                                 : 1 h 41 min
Bit rate mode                            : Constant
Bit rate                                 : 1 510 kb/s
Channel(s)                               : 6 channels
Channel layout                           : C L R Ls Rs LFE
Sampling rate                            : 48.0 kHz
Frame rate                               : 93.750 FPS (512 SPF)
Bit depth                                : 24 bits
Compression mode                         : Lossy
Stream size                              : 1.07 GiB (9%)
Language                                 : Japanese
Default                                  : Yes
Forced                                   : No
Text #1
ID                                       : 3
Format                                   : UTF-8
Codec ID                                 : S_TEXT/UTF8
Codec ID/Info                            : UTF-8 Plain Text
Duration                                 : 1 h 35 min
Bit rate                                 : 43 b/s
Count of elements                        : 430
Stream size                              : 30.2 KiB (0%)
Title                                    : Russian
Language                                 : Russian
Default                                  : Yes
Forced                                   : Yes
Text #2
ID                                       : 4
Format                                   : UTF-8
Codec ID                                 : S_TEXT/UTF8
Codec ID/Info                            : UTF-8 Plain Text
Duration                                 : 1 h 35 min
Bit rate                                 : 20 b/s
Count of elements                        : 391
Stream size                              : 14.1 KiB (0%)
Title                                    : English
Language                                 : English
Default                                  : No
Forced                                   : No
Menu
00:00:00.000                             : en:00:00:00.000
00:07:57.769                             : en:00:07:57.769
00:12:44.764                             : en:00:12:44.764
00:19:36.425                             : en:00:19:36.425
00:28:30.292                             : en:00:28:30.292
00:39:08.763                             : en:00:39:08.763
00:50:20.184                             : en:00:50:20.184
01:00:26.122                             : en:01:00:26.122
01:10:33.896                             : en:01:10:33.896
01:22:00.791                             : en:01:22:00.791
01:28:08.116                             : en:01:28:08.116
01:36:06.761                             : en:01:36:06.761
Правила, инструкции, FAQ!!!
Торрент  Добавлен [18 апр 2020, 10:52] Скачать торрент Магнет ссылка
Скачать торрент
[ Размер 60.34 КБ / Просмотров 3 ]

Статус
Проверен 
 
Размер  11.97 ГБ
Приватный: Нет (DHT включён)
.torrent скачан  0
 


     Отправить личное сообщение
   
Страница 1 из 1
Показать сообщения за:  Поле сортировки  
Начать новую тему Ответить на тему


Сейчас этот форум просматривают: нет зарегистрированных пользователей и гости: 0


Вы не можете начинать темы
Вы не можете отвечать на сообщения
Вы не можете редактировать свои сообщения
Вы не можете удалять свои сообщения
Вы не можете добавлять вложения

Перейти:  
cron